Тор 2: Царство тьмы / Thor: The Dark World (Алан Тейлор) [2013 г., фэнтези, боевик, приключения, BDRip]

Ответить на тему
 

atgerkin ®

Стаж: 6 лет 9 месяцев

Сообщений: 247

Симпатии: 78


Тор 2: Царство тьмы
-- Год выпуска: 2013
Страна: США, Marvel Entertainment, Marvel Studios Inc.
Жанр: фэнтези, боевик, приключения
Продолжительность: 01:52:03
Перевод: Дублированный [Лицензия]-Режиссер: Алан Тейлор-В ролях: Крис Хемсворт, Натали Портман, Том Хиддлстон, Энтони Хопкинс, Джейми Александер, Рэй Стивенсон, Кэт Деннингс, Идрис Эльба, Стеллан Скарсгард, Рене Руссо, Кристофер Экклстон, Стэн Ли-Описание: Тору предстоит сразиться за спасение Земли и Девяти Миров от таинственного врага из времен, предшествовавших возникновению вселенной. После событий «Тора» и «Мстителей» главный герой борется за восстановление порядка в космосе, но древняя раса во главе с мстительным Малекитом возвращается, чтобы погрузить вселенную обратно во тьму. Столкнувшись с врагом, которому не способен противостоять ни Один, ни весь Асгард, Тор отправляется в самое рискованное путешествие, которое воссоединит его с Джейн Фостер с Земли и заставит пожертвовать всем ради спасения вселенной.-Доп. информация: 
релиз на DVD 25 февраля 2014, «Уолт Дисней Компани СНГ», ...
релиз на Blu-Ray 25 февраля 2014, «Уолт Дисней Компани СНГ»
-Качество: BDRip
Формат: MKV
Формат 3d: Half OverUnder / Вертикальная анаморфная стереопара
Видео кодек: AVC
Аудио кодек: AC3
Видео: AVC, 1920x1080 (16:9), 11657 kbps, 23,976 fps, 0,234 bpp
Аудио:
Аудио 1: русский 48 kHz, AC3 Dolby Digital, 3/2 (L,C,R,l,r) + LFE ch, ~384 kbps
Аудио 2: английский / DTS / 5.1 / 48 kHz / 1510 kbps / 24 bit
Субтитры: Русские (форсированные на речь Эльфов), английские

MediaInfo

Общее
Уникальный идентификатор : 174938121905474469914883684125989996124 (0x839BDB5343A699D9B72A0D7CD771065C)
Полное имя : Thor_2_Tharstvo_t'my_it_[serialoved].mkv
Формат : Matroska
Версия формата : Version 4 / Version 2
Размер файла : 10,8 Гбайт
Продолжительность : 1 ч. 52 м.
Общий поток : 13,8 Мбит/сек
Дата кодирования : UTC 2014-02-14 19:02:19
Программа кодирования : mkvmerge v6.6.0 ('The Edge Of The In Between') built on Dec 18 2013 23:19:42
Библиотека кодирования : libebml v1.3.0 + libmatroska v1.4.1
Attachment : Yes
Видео
Идентификатор : 1
Формат : AVC
Формат/Информация : Advanced Video Codec
Профиль формата : [email protected]
Параметр CABAC формата : Да
Параметр ReFrames формата : 2 кадра
Идентификатор кодека : V_MPEG4/ISO/AVC
Продолжительность : 1 ч. 52 м.
Битрейт : 11,7 Мбит/сек
Ширина : 1920 пикселей
Высота : 1080 пикселей
Соотношение сторон : 16:9
Режим частоты кадров : Постоянный
Частота кадров : 23,976 кадра/сек
Цветовое пространство : YUV
Субдискретизация насыщенности : 4:2:0
Битовая глубина : 8 бит
Тип развёртки : Прогрессивная
Бит/(Пиксели*Кадры) : 0.234
Размер потока : 9,12 Гбайт (84%)
Библиотека кодирования : x264 core
Язык : English
Default : Да
Forced : Нет
Основные цвета : BT.709
Характеристики трансфера : BT.709
Коэффициенты матрицы : BT.709
Аудио #1
Идентификатор : 2
Формат : AC-3
Формат/Информация : Audio Coding 3
Расширение режима : CM (complete main)
Параметр Endianness формата : Big
Идентификатор кодека : A_AC3
Продолжительность : 1 ч. 52 м.
Вид битрейта : Постоянный
Битрейт : 384 Кбит/сек
Каналы : 6 каналов
Расположение каналов : Front: L C R, Side: L R, LFE
Частота : 48,0 КГц
Битовая глубина : 16 бит
Метод сжатия : С потерями
Размер потока : 308 Мбайт (3%)
Default : Да
Forced : Нет
Аудио #2
Идентификатор : 3
Формат : DTS
Формат/Информация : Digital Theater Systems
Режим : 16
Параметр Endianness формата : Big
Идентификатор кодека : A_DTS
Продолжительность : 1 ч. 52 м.
Вид битрейта : Постоянный
Битрейт : 1509 Кбит/сек
Каналы : 6 каналов
Расположение каналов : Front: L C R, Side: L R, LFE
Частота : 48,0 КГц
Битовая глубина : 24 бит
Метод сжатия : С потерями
Размер потока : 1,18 Гбайт (11%)
Язык : English
Default : Нет
Forced : Нет
Текст
Идентификатор : 4
Формат : UTF-8
Идентификатор кодека : S_TEXT/UTF8
Идентификатор кодека/Информация : UTF-8 Plain Text
Заголовок : rus forsed
Язык : Russian
Default : Да
Forced : Нет
Меню
00:00:00.000 : en:Prologue
00:06:13.665 : en:The Nine Realms At Peace
00:13:05.535 : en:Strange Happenings In London
00:18:40.995 : en:The Aether Awakens
00:24:56.829 : en:Welcome To Asgard
00:29:07.663 : en:The Last Of The Kursed
00:41:33.366 : en:Attack On Asgard
00:49:40.227 : en:We Are Not Immortal
00:55:56.144 : en:Desperate Times
01:00:08.897 : en:Escape From Asgard
01:08:12.672 : en:Brothers In Arms
01:12:39.897 : en:Return To The Dark World
01:21:34.473 : en:Follow The Signs
01:26:22.094 : en:Thor vs. Malekith vs. The Convergence
01:33:58.800 : en:The Aether Unleashed
01:38:31.656 : en:Born To Be A King
01:41:49.520 : en:End Credits

Скриншоты






Создавать темы 20-Фев-2014 15:23

[Профиль]  [ЛС] 

ислом

Стаж: 5 лет

Сообщений: 32

Симпатии: 2

Ребята я вот фильм скачаю 3 д а я смогу его смотреть с компа или онон будет простым?
без 3д

Создавать темы 20-Фев-2014 15:49

[Профиль]  [ЛС] 

alyosh_80

Стаж: 5 лет 8 месяцев

Сообщений: 4

дайте скорсть

Создавать темы 20-Фев-2014 20:01

[Профиль]  [ЛС] 

morozko

Стаж: 6 лет 8 месяцев

Сообщений: 83

Симпатии: 17

ислом, можешь и с компа смотреть. можно смотреть и в 3д и в обычном режиме, смотря какой выставишь. по умолчанию, естественно, будет 3д.

Создавать темы 20-Фев-2014 21:50

[Профиль]  [ЛС] 

morozko

Стаж: 6 лет 8 месяцев

Сообщений: 83

Симпатии: 17

спасибо за фильм!

Создавать темы 20-Фев-2014 22:15

[Профиль]  [ЛС] 

Sa-shock159

Стаж: 4 года 4 месяца

Сообщений: 97

Симпатии: 27

СПАСИБО!

Создавать темы 23-Фев-2014 09:44

[Профиль]  [ЛС] 

sean80

Стаж: 6 лет 7 месяцев

Сообщений: 38

Симпатии: 4

Дошел до 81% и теперь ругается:
Announce error: Tracker gave HTTP response code 500 (Internal Server Error)
:(

Создавать темы 23-Фев-2014 09:51

[Профиль]  [ЛС] 

yandeh_

Стаж: 4 года 2 месяца

Сообщений: 47

Симпатии: 7

в качестве???

Создавать темы 09-Апр-2014 18:04

[Профиль]  [ЛС] 

Praetorian

Стаж: 6 лет 4 месяца

Сообщений: 3

Симпатии: 1

dayte skorosti plz

Создавать темы 18-Авг-2014 17:11

[Профиль]  [ЛС] 
Показать сообщения:    
Ответить на тему

Текущее время: 26-Сен 16:07

Часовой пояс: UTC + 5



Вы не можете начинать темы
Вы не можете отвечать на сообщения
Вы не можете редактировать свои сообщения
Вы не можете удалять свои сообщения
Вы не можете голосовать в опросах
Вы не можете прикреплять файлы к сообщениям
Вы не можете скачивать файлы