Тор 2: Царство тьмы / Thor: The Dark World (Алан Тейлор / Alan Taylor) [2013, США, фэнтези, боевик, приключения, BDRip 1080р] Dub [Лицензия] + Original Eng + Sub rus

Ответить на тему
 

yusuf.0088 ®

Стаж: 3 года 11 месяцев

Сообщений: 116

Симпатии: 69


Тор 2: Царство тьмы / Thor: The Dark World
Год выпуска: 2013
Страна: США
Жанр: Фэнтези, боевик, приключения
Продолжительность: 01:52:04
Перевод: Профессиональный (дублированный) [Лицензия Blu-Ray EUR]
Cубтитры: Русские (форс и полные)
Оригинальная аудиодорожка: английский
Режиссер: Алан Тейлор / Alan Taylor
В ролях: Крис Хемсворт, Натали Портман, Том Хиддлстон, Энтони Хопкинс, Джейми Александер, Рэй Стивенсон, Кэт Деннингс, Идрис Эльба, Стеллан Скарсгард, Рене Руссо, Кристофер Экклстон, Стэн Ли
Описание: Продолжение приключений одного из членов команды Мстителей, Тора, которому на этот раз в одиночку предстоит защитить Землю и все девять миров от нашествия неизвестного врага. Могучему Тору предстоит вновь сразиться за восстановление порядка в галактике, встретившись лицом к лицу с древней инопланетной расой, ведомой злодеем Малекитом, жаждущим установить в девяти мирах власть тьмы. Столкнувшись с врагом, более могущественным чем сам Один и всё воинство Асгарда, Тор должен собрать силы для решающей битвы. Его ждёт опасное путешествие и долгожданная встреча со своей земной возлюбленной Джейн Фостер. Сможет ли Тор рискнуть самым дорогим, чтобы не дать тьме воцариться на просторах вселенной?- 
-Качество: BDRip 1080p
Формат: MKV
Аудио кодек: AC3, DTS
Видео: MPEG-4 AVC, 9616 Kбит/с, 1920х800, 23.976 кадр/с
Аудио 1: Русский AC3, 6 ch, 640 Кбит/с, 48 КГц |Лицензия Blu-Ray EUR|
Аудио 2: Английский DTS, 6 ch, 1510 кбит/c, 48 КГц |Original|

MediaInfo релиза

Формат : Matroska
Версия формата : Version 4 / Version 2
Размер файла : 9,21 Гбайт
Продолжительность : 1 ч. 52 м.
Общий поток : 11,8 Мбит/сек
Название фильма : CMEGRoup
Дата кодирования : UTC 2014-02-13 19:32:08
Программа кодирования : mkvmerge v6.7.0 ('Back to the Ground') 32bit built on Jan 8 2014 15:03:17
Библиотека кодирования : libebml v1.3.0 + libmatroska v1.4.1
Видео
Идентификатор : 1
Формат : AVC
Формат/Информация : Advanced Video Codec
Профиль формата : [email protected]
Параметр CABAC формата : Да
Параметр ReFrames формата : 5 кадров
Идентификатор кодека : V_MPEG4/ISO/AVC
Продолжительность : 1 ч. 52 м.
Битрейт : 9616 Кбит/сек
Ширина : 1920 пикселей
Высота : 800 пикселей
Соотношение сторон : 2,40:1
Режим частоты кадров : Постоянный
Частота кадров : 23,976 кадра/сек
Цветовое пространство : YUV
Субдискретизация насыщенности : 4:2:0
Битовая глубина : 8 бит
Тип развёртки : Прогрессивная
Бит/(Пиксели*Кадры) : 0.261
Размер потока : 7,34 Гбайт (80%)
Библиотека кодирования : x264 core 138 r2356 a1d3d17
Настройки программы : cabac=1 / ref=5 / deblock=1:-3:-3 / analyse=0x3:0x113 / me=umh / subme=10 / psy=1 / psy_rd=1.00:0.05 / mixed_ref=1 / me_range=32 / chroma_me=1 / trellis=2 / 8x8dct=1 / cqm=0 / deadzone=21,11 / fast_pskip=0 / chroma_qp_offset=-2 / threads=18 / lookahead_threads=1 / sliced_threads=0 / nr=0 / decimate=1 / interlaced=0 / bluray_compat=0 / constrained_intra=0 / bframes=5 / b_pyramid=2 / b_adapt=2 / b_bias=0 / direct=3 / weightb=1 / open_gop=0 / weightp=2 / keyint=250 / keyint_min=23 / scenecut=40 / intra_refresh=0 / rc=2pass / mbtree=0 / bitrate=9616 / ratetol=1.0 / qcomp=0.70 / qpmin=0 / qpmax=69 / qpstep=4 / cplxblur=20.0 / qblur=0.5 / ip_ratio=1.40 / pb_ratio=1.30 / aq=2:0.90
Язык : English
Default : Да
Forced : Нет
Аудио #1
Идентификатор : 2
Формат : AC-3
Формат/Информация : Audio Coding 3
Расширение режима : CM (complete main)
Параметр Endianness формата : Big
Идентификатор кодека : A_AC3
Продолжительность : 1 ч. 52 м.
Вид битрейта : Постоянный
Битрейт : 640 Кбит/сек
Каналы : 6 каналов
Расположение каналов : Front: L C R, Side: L R, LFE
Частота : 48,0 КГц
Битовая глубина : 16 бит
Метод сжатия : С потерями
Размер потока : 513 Мбайт (5%)
Язык : Russian
Default : Да
Forced : Нет
Аудио #2
Идентификатор : 3
Формат : DTS
Формат/Информация : Digital Theater Systems
Режим : 16
Параметр Endianness формата : Big
Идентификатор кодека : A_DTS
Продолжительность : 1 ч. 52 м.
Вид битрейта : Постоянный
Битрейт : 1509 Кбит/сек
Каналы : 6 каналов
Расположение каналов : Front: L C R, Side: L R, LFE
Частота : 48,0 КГц
Битовая глубина : 24 бит
Метод сжатия : С потерями
Размер потока : 1,18 Гбайт (13%)
Язык : English
Default : Нет
Forced : Нет
Текст #1
Идентификатор : 4
Формат : UTF-8
Идентификатор кодека : S_TEXT/UTF8
Идентификатор кодека/Информация : UTF-8 Plain Text
Заголовок : forced
Язык : Russian
Default : Да
Forced : Нет
Текст #2
Идентификатор : 5
Формат : UTF-8
Идентификатор кодека : S_TEXT/UTF8
Идентификатор кодека/Информация : UTF-8 Plain Text
Заголовок : full
Язык : Russian
Default : Нет
Forced : Нет
Меню
00:00:00.000 : en:00:00:00.000
00:06:13.665 : en:00:06:13.665
00:13:05.535 : en:00:13:05.535
00:18:40.995 : en:00:18:40.995
00:24:56.829 : en:00:24:56.829
00:29:07.663 : en:00:29:07.663
00:41:33.366 : en:00:41:33.366
00:49:40.227 : en:00:49:40.227
00:55:56.144 : en:00:55:56.144
01:00:08.897 : en:01:00:08.897
01:08:12.672 : en:01:08:12.672
01:12:39.897 : en:01:12:39.897
01:21:34.473 : en:01:21:34.473
01:26:22.094 : en:01:26:22.094
01:33:58.800 : en:01:33:58.800
01:38:31.656 : en:01:38:31.656
01:41:49.520 : en:01:41:49.520

Скриншоты



Создавать темы 20-Фев-2014 21:52

[Профиль]  [ЛС] 

yusuf.0088 ®

Стаж: 3 года 11 месяцев

Сообщений: 116

Симпатии: 69

GIGABYTE158, спасибо за помощь в раздаче mb

Создавать темы 21-Фев-2014 13:21

[Профиль]  [ЛС] 
Показать сообщения:    
Ответить на тему

Текущее время: 23-Сен 12:39

Часовой пояс: UTC + 5



Вы не можете начинать темы
Вы не можете отвечать на сообщения
Вы не можете редактировать свои сообщения
Вы не можете удалять свои сообщения
Вы не можете голосовать в опросах
Вы не можете прикреплять файлы к сообщениям
Вы не можете скачивать файлы