12 лет рабства / 12 Years a Slave (Стив МакКуин / Steve McQueen) [2013, США, Великобритания, драма, биография, история, WEB-DL 720p] Dub (iTunes)

Ответить на тему
 

NeymaR ®

Стаж: 3 года 9 месяцев

Сообщений: 68

Симпатии: 16

12 лет рабства / 12 Years a Slave-«Экстраординарная правдивая история Соломона Нортапа»- Год выпуска: 2013
Страна: США, Великобритания
Жанр: Драма, биография, история
Продолжительность: 02:13:59-Перевод: Профессиональный (полное дублирование) [iTunes]
Оригинальная дорожка: нет
Cубтитры: нет-Режиссер: Стив МакКуин / Steve McQueen-Сценарий: Джон Ридли, Соломон Нортап-В ролях: Чиветел Эджиофор, Майкл Фассбендер, Бенедикт Камбербэтч, Пол Дано, Пол Джаматти, Лупита Нионго, Сара Полсон, Брэд Питт, Элфри Вудард, Кувенжане Уоллис-Описание: Соломон Нортап был женатым и образованным мужчиной, который жил и работал в Нью-Йорке, когда два человека однажды предложили ему привлекательную работу в Вашингтоне. По прибытии он был похищен, стал рабом и влачил жалкую жизнь, переходя от одного хозяина к другому.- -Качество: WEB-DL 720p
Формат: MKV
Аудио кодек: AC3
Видео: MPEG-4 AVC, [email protected], 4041 Кбит/с, 1280x720, 24,000 кадра/сек
Аудио: Русский AC3, 6 ch, 384 Кбит/с, 48КГц |Дубляж iTunes|

MediaInfo

Формат : Matroska
Версия формата : Version 2
Размер файла : 4,23 Гбайт
Продолжительность : 2 ч. 13 м.
Общий поток : 4514 Кбит/сек
Дата кодирования : UTC 2014-02-17 20:11:53
Программа кодирования : mkvmerge v5.8.0 ('No Sleep / Pillow') built on Sep 2 2012 15:37:04
Библиотека кодирования : libebml v1.2.3 + libmatroska v1.3.0
Видео
Идентификатор : 1
Формат : AVC
Формат/Информация : Advanced Video Codec
Профиль формата : [email protected]
Параметр CABAC формата : Нет
Параметр ReFrames формата : 2 кадра
Идентификатор кодека : V_MPEG4/ISO/AVC
Продолжительность : 2 ч. 13 м.
Битрейт : 4041 Кбит/сек
Ширина : 1280 пикселей
Высота : 720 пикселей
Соотношение сторон : 16:9
Режим частоты кадров : Постоянный
Частота кадров : 24,000 кадра/сек
Цветовое пространство : YUV
Субдискретизация насыщенности : 4:2:0
Битовая глубина : 8 бит
Тип развёртки : Прогрессивная
Бит/(Пиксели*Кадры) : 0.183
Размер потока : 3,78 Гбайт (90%)
Язык : English
Default : Да
Forced : Нет
Основные цвета : BT.709
Характеристики трансфера : BT.709
Коэффициенты матрицы : BT.709
Аудио
Идентификатор : 2
Формат : AC-3
Формат/Информация : Audio Coding 3
Расширение режима : CM (complete main)
Параметр Endianness формата : Big
Идентификатор кодека : A_AC3
Продолжительность : 2 ч. 13 м.
Вид битрейта : Постоянный
Битрейт : 384 Кбит/сек
Каналы : 6 каналов
Расположение каналов : Front: L C R, Side: L R, LFE
Частота : 48,0 КГц
Битовая глубина : 16 бит
Метод сжатия : С потерями
Размер потока : 368 Мбайт (9%)
Язык : Russian
Default : Да
Forced : Нет

Скриншоты



Последний раз редактировалось: NeymaR (2014-02-21 07:48), всего редактировалось 1 раз

Создавать темы 21-Фев-2014 00:26

[Профиль]  [ЛС] 

Топик был перенесен из форума Фильмы за 2013 в форум Зарубежное кино
СтАсИкОс

Создавать темы 21-Фев-2014 02:36

 

СтАсИкОс

Стаж: 6 лет 7 месяцев

Сообщений: 314

Симпатии: 20

Добавьте скрины

Создавать темы 21-Фев-2014 02:37

[Профиль]  [ЛС] 

zexx

Стаж: 4 года

Сообщений: 10

Да блин ето капец какой-то,качать 4 с лишним гига с такой скоростью...

Создавать темы 22-Фев-2014 16:51

[Профиль]  [ЛС] 

ps18-mufc

Стаж: 4 года 1 месяц

Сообщений: 22

Симпатии: 1

Ребята спасибо за отличную отдачу.

Создавать темы 22-Май-2014 13:05

[Профиль]  [ЛС] 
Показать сообщения:    
Ответить на тему

Текущее время: 19-Авг 03:08

Часовой пояс: UTC + 5



Вы не можете начинать темы
Вы не можете отвечать на сообщения
Вы не можете редактировать свои сообщения
Вы не можете удалять свои сообщения
Вы не можете голосовать в опросах
Вы не можете прикреплять файлы к сообщениям
Вы не можете скачивать файлы