Нападение на 13-й участок / Assault on Precinct 13 (Жан-Франсуа Рише) [2005 г., боевик, триллер, драма, криминал, HDRip]

Ответить на тему
 

Sattarvoybek ®

Стаж: 4 года 1 месяц

Сообщений: 5

Нападение на 13-й участок / Assault on Precinct 13 Год выпуска: 2005
Страна: США, Франция
Жанр: боевик, триллер, драма, криминал
Продолжительность: 01:48:53
Перевод: Профессиональный (полное дублирование)
Режиссер: Жан-Франсуа Рише- В ролях: Итан Хоук, Лоренс Фишбёрн, Гэбриел Бирн, Мария Белло, Дреа де Маттео, Джон Легуизамо, Брайан Деннехи, Джа Рул, Карри Грэм-Описание: Считанные часы остаются до закрытия 13-го полицейского участка. Но пока его сотрудники во главе с сержантом Роуником готовятся к встрече Нового года, снежная буря разворачивает к ним спецавтобус с преступниками. В их числе и только что захваченный гангстер Мэрион Бишоп. Ничто, казалось бы, не позволит отвлечь полицейских от праздника: пока вооруженные люди в масках не нападают на участок. И блюстители закона вынуждены объединиться с преступниками, чтобы выжить этой ночью!
- Качество: HDRip
Формат: AVI
Видео кодек: XviD
Аудио кодек: AC3
Видео: 720x304 (2.37:1), 23.976 fps, XviD build 47 ~1522 kbps avg, 0.29 bit/pixel
Аудио: 48 kHz, AC3 Dolby Digital, 3/2 (L,C,R,l,r) + LFE ch, ~384.00 kbps avg

IM

Расположение: C:\Раздачу на Торрент\napadenie_na_13.avi
Имя файла: napadenie_na_13.avi
Формат файла: .avi (AVI)
Размер файла: 1.46 GB
Длительность: 1h 48mn
Навигация по главам: Нет
Битрейт (все потоки): 1 916 Kbps
Создан при помощи: VirtualDubMod 1.5.10.2 (build 2540/release)
Использовалась библиотека: VirtualDubMod build 2540/release
Обложка: Отсутствует
Название: napadenie_na_13
Тип потока: Видео
Длительность: 01:48:53
Кодек: MPEG-4 Visual
Кодек/профиль: Advanced [email protected]
Кодек/ID: XVID
Размеры изображения: 720 x 304 (2.35:1)
Частота кадров: 23.976 fps
Размер потока: 1.16 GiB (79%)
Битрейт: 1 523 Kbps
Метод сжатия: Lossy
Библиотека кодирования: XviD 1.2.0.dev47 (UTC 2006-11-01)
Цветовое пространство: YUV
Тип развёртки: Progressive
Колориметрия: 4:2:0
Глубина: 8 bits
Тип потока: Звук #1
Длительность: 01:48:49.920
Кодек: AC-3
Кодек/описание: Audio Coding 3
Кодек/ID: 2000
Частота дискретизации: 48.0 KHz
Каналов: 6 channels
Битрейт: 384 Kbps
Битрейт/тип: Constant
Размер потока: 299 MiB (20%)
Глубина: 16 bits
Метод сжатия: Lossy

Скриншоты

Создавать темы 21-Фев-2014 16:38

[Профиль]  [ЛС] 

Sattarvoybek ®

Стаж: 4 года 1 месяц

Сообщений: 5

869142Скорости ПОЖАЛУЙСТО!
Если я был бы в Узбекистане я добавил скорость ?

Создавать темы 09-Ноя-2014 18:01

[Профиль]  [ЛС] 

Sattarvoybek ®

Стаж: 4 года 1 месяц

Сообщений: 5

Модераторы удалите пожалуйста!

Создавать темы 09-Апр-2015 02:30

[Профиль]  [ЛС] 
Показать сообщения:    
Ответить на тему

Текущее время: 15-Дек 09:42

Часовой пояс: UTC + 5



Вы не можете начинать темы
Вы не можете отвечать на сообщения
Вы не можете редактировать свои сообщения
Вы не можете удалять свои сообщения
Вы не можете голосовать в опросах
Вы не можете прикреплять файлы к сообщениям
Вы не можете скачивать файлы