Джунгли 3D (Александр Войтинский) [2012 г., мелодрама, комедия, приключения, BDRip 1080p 3D]

Ответить на тему
 

ruslan08 ®

Стаж: 5 лет 8 месяцев

Сообщений: 73

Симпатии: 7

Джунгли 3D Год выпуска: 2012
Страна: Россия
Студия: Кинокомпания CTB
Жанр: мелодрама, комедия, приключения
Продолжительность: 01:23:30
Перевод: Не требуется-Режиссер
: Александр Войтинский-В ролях: Сергей Светлаков, Вера Брежнева, Александр Макогон, Александр Половцев, Марина Дюжева, Михаил Ефремов, Ирина Медведева, Ампорн Панкраток, Соонтри Кхумжулла, Сомсак Падуга.-Описание: У Сергея и Марины в семейной жизни наступил кризис. Во время одной из ссор, они решают поехать в экзотическое путешествие. Всю дорогу между супругами не утихают ссоры, которые в конце концов приводят к тому, что они оказываются на необитаемом острове, затерянном в океане. Вместо того чтобы вместе бороться за выживание, наши герои продолжают выяснять отношения, постепенно переходя к настоящим боевым действиям. В довершение несчастий оказывается, что остров населен племенем воинствующих туземцев.-Качество: BDRip 3D
Формат: MKV
Видео кодек: x264
Аудио кодек: AC3
Видео: 1920х1080, 13,6 Mbps, 23,976 fps
Аудио: Русский, AC3, 48 KHz, 5.1 ch, 640 Kbps

Media INFO

Format : Matroska
File size : 5.33 GiB
Duration : 1h 23mn
Overall bit rate mode : Variable
Overall bit rate : 9 138 Kbps
Writing application : Nero MKV Muxer
Writing library : Nero MKV Muxer
Video
ID : 1
Format : AVC
Format/Info : Advanced Video Codec
Format profile : [email protected]
Format settings, CABAC : Yes
Format settings, ReFrames : 2 frames
Codec ID : V_MPEG4/ISO/AVC
Duration : 1h 23mn
Bit rate mode : Variable
Bit rate : 8 317 Kbps
Maximum bit rate : 20.0 Mbps
Width : 1 920 pixels
Height : 1 080 pixels
Display aspect ratio : 16:9
Frame rate mode : Constant
Frame rate : 23.976 fps
Color space : YUV
Chroma subsampling : 4:2:0
Bit depth : 8 bits
Scan type : Progressive
Bits/(Pixel*Frame) : 0.167
Stream size : 4.85 GiB (91%)
Language : English
Default : Yes
Forced : No
Audio
ID : 2
Format : AC-3
Format/Info : Audio Coding 3
Mode extension : CM (complete main)
Format settings, Endianness : Big
Codec ID : A_AC3
Duration : 1h 23mn
Bit rate mode : Constant
Bit rate : 640 Kbps
Channel count : 6 channels
Channel positions : Front: L C R, Side: L R, LFE
Sampling rate : 48.0 KHz
Bit depth : 16 bits
Compression mode : Lossy
Stream size : 382 MiB (7%)
Language : Russian
Default : Yes
Forced : No

Скриншоты

Создавать темы 22-Фев-2014 00:25

[Профиль]  [ЛС] 

M_A_K

Стаж: 5 лет 8 месяцев

Сообщений: 100

Симпатии: 15

Сейчас помогу вам со скачиваем народ, встал на раздачу

Создавать темы 01-Мар-2014 11:43

[Профиль]  [ЛС] 

Duracell

Стаж: 4 года 10 месяцев

Сообщений: 19

Ау дайте скачать

Создавать темы 06-Мар-2014 20:23

[Профиль]  [ЛС] 

M_A_K

Стаж: 5 лет 8 месяцев

Сообщений: 100

Симпатии: 15

скажи спасибо всем свалившим я всем раздал хить и не автор релиза

Создавать темы 06-Мар-2014 21:59

[Профиль]  [ЛС] 
Показать сообщения:    
Ответить на тему

Текущее время: 23-Сен 14:22

Часовой пояс: UTC + 5



Вы не можете начинать темы
Вы не можете отвечать на сообщения
Вы не можете редактировать свои сообщения
Вы не можете удалять свои сообщения
Вы не можете голосовать в опросах
Вы не можете прикреплять файлы к сообщениям
Вы не можете скачивать файлы