Девушка из красной книги / RDG: Red Data Girl (Синохара Тосия) [TV] [12 из 12] [без хардсаба] [RUS(ext), JAP+SUB] [2013 г., приключения, мистика, BDRip] [720p]

Ответить на тему
 

MeiDoCorpse ®

Стаж: 4 года 7 месяцев

Сообщений: 222

Симпатии: 14

- Год выпуска: 2013
Страна: Япония
Жанр: приключения, мистика
Продолжительность: ТВ | 12 эп. по 25 мин.-Режиссёр: Синохара Тосия
Автор оригинала: Огивара Норико
Студия: P.A. Works-Описание:
15-летняя Идзумико Судзухара выросла в храме Тамакура, что в горах Кумано. Отец работал в Америке, мать – в столице, робкая и стеснительная девочка жила вдали от цивилизации на попечении дедушки с бабушкой. И не зря – Идзумико не ладила с современной техникой, компьютеры при ней показывали совсем не то, а остальное просто ломалось. Героиня, воспитанная в храме, догадывалась, что видит куда больше сверстников, и только святая земля защищает ее от сил зла. Каково же было ее удивление, когда родители однозначно велели дочери продолжить учебу не в привычной глуши, а в Токио, в академии «Замок Феникса»!
Конечно, Судзухара должна ехать в чужой город не одна, а в компании специально призванного Миюки Сагары, резковатого красавца и старого знакомого, отец которого – таинственный горный отшельник. К сожалению, истину молодежи никто не поведал, потому девушка всего боится, а парень считает ее дурой и трусихой. Истина же проста: Идзумико - последняя в роду «ёрисиро», то есть медиум, способный вместить дух богини-ками, а Миюки – ее избранный рыцарь. Увы, в подобный сосуд может вселиться не только благая богиня, потому работы юному Сагаре в столице точно хватит. Героине же пора снимать очки и начинать работать над самореализацией!
© Hollow, World Art-Cсылки: Официальная страница || AniDB || World Art || MAL-Качество: BDRip
Энкод: Winter
Контейнер: mkv
Тип видео: Без хардсаба
Наличие линковки: Нет
Видео: x264 (Hi10p), 1280x720, ~2800 Kbps, 23.976 fps
Аудио: Japanese, Vorbis, 48000Hz, ~256 Kbps, 2ch, в составе контейнера
Аудио: Russian, AC3, 48000Hz, ~192 Kbps, 2ch, внешними файлами | двухголосая от Shoker & Eladiel
Субтитры: Russian, ASS, внешними файлами | перевод от GMC-

Список эпизодов

01. The First Transfer Student
02. The First Palm of Someone`s Hand
03. My First Familiar
04. My First Roommate
05. My First Makeup
06. My First Slumber Party
07. My First Time Getting Lost
08. My First Wish
09. My First Debut
10. My First School Festival
11. My First Rejection
12. World Heritage Girl

Скриншоты

Подробные тех. данные

General
Unique ID : 198568294146875347943261085959905668746 (0x9562DCC44D662155BF46EDCD8F40EE8A)
Complete name : ***\RDG - Red Data Girl [BD] [720p]\[Winter] RDG - Red Data Girl 01 [BDrip 1280x720 x264 Vorbis].mkv
Format : Matroska
Format version : Version 2
File size : 519 MiB
Duration : 24mn 42s
Overall bit rate mode : Variable
Overall bit rate : 2 939 Kbps
Encoded date : UTC 2013-07-06 17:13:08
Writing application : mkvmerge v2.9.8 ('C'est le bon') built on Aug 13 2009 12:49:06
Writing library : libebml v0.7.7 + libmatroska v0.8.1
Video
ID : 1
Format : AVC
Format/Info : Advanced Video Codec
Format profile : High [email protected]
Format settings, CABAC : Yes
Format settings, ReFrames : 9 frames
Codec ID : V_MPEG4/ISO/AVC
Duration : 24mn 42s
Bit rate : 2 625 Kbps
Width : 1 280 pixels
Height : 720 pixels
Display aspect ratio : 16:9
Frame rate mode : Constant
Frame rate : 23.976 fps
Color space : YUV
Chroma subsampling : 4:2:0
Bit depth : 10 bits
Scan type : Progressive
Bits/(Pixel*Frame) : 0.119
Stream size : 464 MiB (89%)
Writing library : x264 core 132 r2309 3b1f1f7
Encoding settings : cabac=1 / ref=9 / deblock=1:-2:-2 / analyse=0x3:0x133 / me=umh / subme=9 / psy=1 / psy_rd=0.90:0.00 / mixed_ref=1 / me_range=24 / chroma_me=1 / trellis=2 / 8x8dct=1 / cqm=0 / deadzone=21,11 / fast_pskip=1 / chroma_qp_offset=-2 / threads=6 / lookahead_threads=1 / sliced_threads=0 / nr=0 / decimate=0 / interlaced=0 / bluray_compat=0 / constrained_intra=0 / bframes=8 / b_pyramid=2 / b_adapt=2 / b_bias=0 / direct=1 / weightb=1 / open_gop=0 / weightp=2 / keyint=250 / keyint_min=23 / scenecut=40 / intra_refresh=0 / rc=crf / mbtree=0 / crf=15.7 / qcomp=0.70 / qpmin=9 / qpmax=40 / qpstep=4 / ip_ratio=1.40 / pb_ratio=1.30 / aq=1:0.90
Default : No
Forced : No
Audio
ID : 2
Format : Vorbis
Format settings, Floor : 1
Codec ID : A_VORBIS
Duration : 24mn 42s
Bit rate mode : Variable
Bit rate : 256 Kbps
Channel count : 2 channels
Sampling rate : 48.0 KHz
Compression mode : Lossy
Stream size : 45.2 MiB (9%)
Writing library : libVorbis (Schaufenugget) (20101101 (Schaufenugget))
Language : Japanese
Default : Yes
Forced : No

Создавать темы 23-Фев-2014 10:34

[Профиль]  [ЛС] 

SaniLLa

Стаж: 5 лет 11 месяцев

Сообщений: 5

Уважаемый MeiDoCorpse к вам просьба прсидиравать этот релиз до конца пожалуйста. С нескольких трекеров качал так и не смог скачать ta надеюсь хоть здесь скачаю не 10-15% а все 100%.
Зарание спасибо=)

Создавать темы 23-Фев-2014 16:34

[Профиль]  [ЛС] 

rikimaruxxx

Стаж: 5 лет 5 месяцев

Сообщений: 254

Симпатии: 42

сначала думал во круто! приключения, мистика от создателей иной, блюрей рип и.т.д. . . а в итоге нет интриги 0 сюжет 0 это самое худшее творение P.A. Works не считая рисовку анимации. . . смотрите не обращая внимания на сюжет. еще лучше не смотрите.

Создавать темы 06-Апр-2014 00:10

[Профиль]  [ЛС] 
Показать сообщения:    
Ответить на тему

Текущее время: 11-Дек 18:22

Часовой пояс: UTC + 5



Вы не можете начинать темы
Вы не можете отвечать на сообщения
Вы не можете редактировать свои сообщения
Вы не можете удалять свои сообщения
Вы не можете голосовать в опросах
Вы не можете прикреплять файлы к сообщениям
Вы не можете скачивать файлы