Ударные ведьмы / Strike Witches / Штурмовые ведьмы (Такамура Кадзухиро) [TV-1] [12 из 12] [без хардсаба] [RUS(ext), JAP,ENG,SUB] [2008 г.,приключения, фантастика, этти, BDRip] [1080p]

Ответить на тему
 

vovan.kim95 ®

Стаж: 5 лет 10 месяцев

Сообщений: 117

- Год выпуска: 2008
Страна: Япония
Жанр: приключения, фантастика, этти
Тип: TV
Продолжительность: 12 эп., 25 мин.-Перевод:
• Субтитры: ZeroDI & HeMet & Freйя & Hollow (отдельными файлами)
• любительская, двухголосая - Noir & Cuba77-Студия: GONZO
Режиссер: Такамура Кадзухиро-Описание: Где-то в параллельном мире в 1939 году на Землю явились Неврои – бездушные летающие машины, умеющие только сеять смерть и разрушение. Страны двух блоков, до того стоявшие на пороге мировой войны, срочно объединились для противодействия неведомому агрессору. И что же? Любое традиционное оружие середины XX века пришельцам нипочем - армады самолетов, военный флот, сухопутные армии просто сметаются в небытие. Справиться с Невроями может лишь сплав науки и магии – чудо-оружие, похожее на гибрид сдвоенной ведьминой ступы и боевого самолета. Пользоваться им могут, разумеется, исключительно юные девушки, наделенные волшебными силами, которые со всего мира стекаются в последний оплот Земли – скалистый остров в проливе Ла-Манш. Кстати, оружие требует тесного контакта с телом, поэтому уставной формой отряда «Штурмовых ведьм» являются китель и …трусики!
Аниме посвящено суровым будням борьбы отряда «ведьм» с пришельцами-Невроями, непростым взаимоотношениям в женском коллективе, куда в первых сериях вливается новичок - 14-летняя Ёсика Мияфудзи из островной империи Фусо. Пацифистка Ёсика, чьим основным даром является исцеление, постепенно понимает, что сейчас никто не может стоять в стороне от битвы. Интересно, что национальность, характер и способности каждой из 11 героинь «Штурмовых ведьм» основаны на реальных прототипах – лучших воздушных асах Второй мировой.
© Hollow, World Art-Доп. информация: AniDB || World Art || MyAnimeList-Качество: BDRip
Энкод: Leopard-Raws
Контейнер: mkv
Тип видео: Без хардсаба
Видео: x264, 1920x1080, ~4000 Kbps, 23.976 fps
Аудио: Japanese, AAC, 265 Kbps, 48.0 KHz, 2ch
Аудио: Russian, AAC, 226 Kbps 48.0 KHz, 2ch ; Озвучка: любительская, двухголосая - Noir & Cuba77 (отдельными файлами)
Аудио: English, AAC, 365 Kbps, 48.0 KHz, 6ch
Субтитры: Russian, ASS ; Перевод: ZeroDI & HeMet & Freйя & Hollow (отдельными файлами)-

Список эпизодов

1. Magical Girl
2. To Do What I Can
3. Lonely No More
4. Thank You
5. Swift, Gigantic, and Soft
6. Solidarity
7. Nice `n Breezy
8. Forget You Not
9. Defend at All Costs
10. Trust and Friendship
11. To The Sky
12. Strike Witches

MI

General
Complete name : G:\New\Аниме\[Leopard-Raws] Strike Witches 01-12 (BD 1920x1080 x264 AAC[jpn2.ch+eng5.1ch] CCS)\[Leopard-Raws] Strike Witches - 01 (BD 1920x1080 x264 AAC[jpn2.ch+eng5.1ch] CCS).mp4
Format : MPEG-4
Format profile : Base Media
Codec ID : isom
File size : 848 MiB
Duration : 24mn 12s
Overall bit rate mode : Variable
Overall bit rate : 4 897 Kbps
Encoded date : UTC 2010-07-03 21:17:13
Tagged date : UTC 2010-07-03 21:17:13
Writing application : Yamb 2.1.0.0 [http://yamb.unite-video.com]
Video
ID : 1
Format : AVC
Format/Info : Advanced Video Codec
Format profile : [email protected]
Format settings, CABAC : Yes
Format settings, ReFrames : 4 frames
Codec ID : avc1
Codec ID/Info : Advanced Video Coding
Duration : 24mn 11s
Bit rate : 4 268 Kbps
Maximum bit rate : 20.3 Mbps
Width : 1 920 pixels
Height : 1 080 pixels
Display aspect ratio : 16:9
Frame rate mode : Constant
Frame rate : 23.976 fps
Color space : YUV
Chroma subsampling : 4:2:0
Bit depth : 8 bits
Scan type : Progressive
Bits/(Pixel*Frame) : 0.086
Stream size : 739 MiB (87%)
Writing library : x264 core 96 r1613M dangerous
Encoding settings : cabac=1 / ref=4 / deblock=1:-2:-2 / analyse=0x3:0x113 / me=umh / subme=9 / psy=1 / fade_compensate=0.00 / psy_rd=1.00:0.00 / mixed_ref=1 / me_range=32 / chroma_me=1 / trellis=0 / 8x8dct=1 / cqm=0 / deadzone=21,11 / fast_pskip=0 / chroma_qp_offset=0 / threads=12 / sliced_threads=0 / nr=0 / decimate=0 / interlaced=0 / constrained_intra=0 / fgo=0 / bframes=3 / b_pyramid=0 / b_adapt=2 / b_bias=0 / direct=3 / weightb=1 / weightp=2 / keyint=240 / keyint_min=1 / scenecut=70 / intra_refresh=0 / rc_lookahead=40 / rc=crf / mbtree=0 / crf=20.0 / qcomp=0.75 / qpmin=10 / qpmax=28 / qpstep=8 / vbv_maxrate=50000 / vbv_bufsize=50000 / crf_max=0.0 / ip_ratio=1.40 / pb_ratio=1.30 / aq=1 / aq-metric=0 / aq-strength=0.00 / aq-sensitivity=10.00 / aq-ifactor=1.00 / aq-pfactor=1.00 / aq-bfactor=1.00 / aq2=1 / aq2-strength=0.40 / aq2-sensitivity=18.00 / nal_hrd=none
Encoded date : UTC 2010-07-04 09:36:02
Tagged date : UTC 2010-07-04 09:34:04
Audio #1
ID : 2
Format : AAC
Format/Info : Advanced Audio Codec
Format profile : LC
Codec ID : 40
Duration : 24mn 12s
Bit rate mode : Variable
Bit rate : 254 Kbps
Maximum bit rate : 382 Kbps
Channel count : 2 channels
Channel positions : Front: L R
Sampling rate : 48.0 KHz
Compression mode : Lossy
Delay relative to video : 42ms
Stream size : 43.9 MiB (5%)
Title : 2.0ch
Language : Japanese
Encoded date : UTC 2010-07-03 21:17:43
Tagged date : UTC 2010-07-04 09:34:04
Audio #2
ID : 3
Format : AAC
Format/Info : Advanced Audio Codec
Format profile : LC
Codec ID : 40
Duration : 24mn 12s
Bit rate mode : Variable
Bit rate : 353 Kbps
Maximum bit rate : 518 Kbps
Channel count : 2 channels
Original Channel count : 6 channels
Channel positions : Front: L C R, Side: L R, LFE
Sampling rate : 48.0 KHz
Compression mode : Lossy
Delay relative to video : 42ms
Stream size : 61.4 MiB (7%)
Title : 5.1ch
Language : English
Encoded date : UTC 2010-07-03 21:17:45
Tagged date : UTC 2010-07-04 09:34:04
Text #1
ID : 4
Format : mp4s
Codec ID : E0
Duration : 24mn 9s
Bit rate mode : Variable
Bit rate : 7 056 bps
Maximum bit rate : 130 Kbps
Delay relative to video : 42ms
Stream size : 1.22 MiB (0%)
Title : subtitle
Language : Japanese
Encoded date : UTC 2010-07-03 21:17:47
Tagged date : UTC 2010-07-04 09:34:04
Text #2
ID : 5
Format : mp4s
Codec ID : E0
Duration : 24mn 10s
Bit rate mode : Variable
Bit rate : 7 920 bps
Maximum bit rate : 97.8 Kbps
Delay relative to video : 42ms
Stream size : 1.37 MiB (0%)
Title : subtitle
Language : English
Encoded date : UTC 2010-07-03 21:17:47
Tagged date : UTC 2010-07-04 09:34:04

Скриншоты

-Второй Сезон


Последний раз редактировалось: vovan.kim95 (2014-02-23 19:31), всего редактировалось 1 раз

Создавать темы 23-Фев-2014 12:32

[Профиль]  [ЛС] 

Азиз87

Стаж: 5 лет 1 месяц

Сообщений: 752

Симпатии: 143

Я понимаю, что ТУТ так, но придется дополнить:
  • MediaInfo
  • 8 или 10 bit видео?
Тоже самое относится и ко второму сезону!

Создавать темы 23-Фев-2014 19:32

[Профиль]  [ЛС] 

Alex_38

Стаж: 5 лет 9 месяцев

Сообщений: 336

Симпатии: 37

Азиз87, указывать битрейтность видео ведь не обязательно

Создавать темы 23-Фев-2014 20:55

[Профиль]  [ЛС] 

SNIL

Стаж: 5 лет 11 месяцев

Сообщений: 2624

Симпатии: 341

Азиз87, да и под спойлером MI эта инфа есть

Создавать темы 23-Фев-2014 21:08

[Профиль]  [ЛС] 

-RutaKate-

Стаж: 3 года 10 месяцев

Сообщений: 6

интересно а тут гг парень есть?

Создавать темы 24-Фев-2014 00:31

[Профиль]  [ЛС] 

Alex_38

Стаж: 5 лет 9 месяцев

Сообщений: 336

Симпатии: 37

-RutaKate-, гг парня нет)

Создавать темы 24-Фев-2014 05:57

[Профиль]  [ЛС] 

-RutaKate-

Стаж: 3 года 10 месяцев

Сообщений: 6

капец !) в топку релиз

Создавать темы 24-Фев-2014 06:42

[Профиль]  [ЛС] 

павлентус

Стаж: 5 лет 2 месяца

Сообщений: 23

3 скрин на Асуну из sword art 0nline похожа)

Создавать темы 25-Фев-2014 13:07

[Профиль]  [ЛС] 

axafa

Стаж: 4 года 9 месяцев

Сообщений: 11

Народ кто скачал встанте на раздачу... md
Блин модеры нафига сидера забанили... теперь скачать не можем bu

Создавать темы 23-Май-2014 21:17

[Профиль]  [ЛС] 

SNIL

Стаж: 5 лет 11 месяцев

Сообщений: 2624

Симпатии: 341

axafa, Ни кто ни кого не банил

Создавать темы 23-Май-2014 21:38

[Профиль]  [ЛС] 

LikeSmile

Стаж: 4 года 7 месяцев

Сообщений: 298

Симпатии: 48

axafa, увы, канал забит своими раздачами...

Создавать темы 25-Май-2014 15:01

[Профиль]  [ЛС] 

axafa

Стаж: 4 года 9 месяцев

Сообщений: 11

Блин... ну ладно с рутрекера докачаю и сам раздавать буду!!

Создавать темы 01-Июн-2014 06:53

[Профиль]  [ЛС] 
Показать сообщения:    
Ответить на тему

Текущее время: 13-Дек 23:30

Часовой пояс: UTC + 5



Вы не можете начинать темы
Вы не можете отвечать на сообщения
Вы не можете редактировать свои сообщения
Вы не можете удалять свои сообщения
Вы не можете голосовать в опросах
Вы не можете прикреплять файлы к сообщениям
Вы не можете скачивать файлы