[#224]Рождественская история / A Christmas Story (Боб Кларк / Bob Clark) [1983, США, Канада, драма, комедия, семейный, BDRip] MVO + Original

Ответить на тему
 

razor2011 ®

Стаж: 5 лет 2 месяца

Сообщений: 227

Симпатии: 37

Рождественская история / A Christmas Story«'Tis better to give than to receive»- Год выпуска: 1983
Страна: США, Канада
Жанр: драма, комедия, семейный
Продолжительность: 01:33:23
Перевод: Профессиональный (многоголосый, закадровый)-Режиссер: Боб Кларк / Bob Clark
сценарий : Дж. Шеперд, Ли Браун, Боб Кларк
продюсер: Боб Кларк, Рене Дюпон, Гэри Гоч
оператор: Реджинальд Х. Моррис
композитор: Пол Заза, Карл Зиттрер, Дж. Фред Кутс, ...
художник: Рубен Фрид, Гэвин Митчелл, Мэри Е. МакЛеод, ...
монтаж: Стэн Коул-В ролях: Мелинда Диллон, Дэррен МакГэвин, Питер Биллингсли, Йен Петрелла, Скотт Шварц, Р.Д. Робб, Тедде Мур, Яно Анайа, Зак Уорд, Джефф Джиллен
О фильме: Индиана, 1940 год. Девятилетний Ральфи мечтает об идеальном рождественском подарке — настоящей двухсотзарядной пневматической винтовке Красного Наездника.
Ворчливый папаша и заботливая мамочка, естественно, против, полагая, что их драгоценный сынуля может себя покалечить! И тогда Ральфи решает обратиться за помощью к самому Санта-Клаусу.-Доп. информация:
| | 12+-Качество: BDRip
Формат: AVI
Видео: Xvid 720x400 23.98fps 1 833 Kbps
Аудио 1: Dolby AC3 48000Hz mono 192kbps (rus)
Аудио 2: Dolby AC3 48000Hz mono 192kbps (origina)-

MI

General
Complete name : C:\Downloads\rozdestvenckaja_istorija_rus_eng_m.avi
Format : AVI
Format/Info : Audio Video Interleave
File size : 1.46 GiB
Duration : 1h 33mn
Overall bit rate : 2 231 Kbps
Writing application : VirtualDubMod 1.5.10.2 (build 2540/release)
Writing library : VirtualDubMod build 2540/release
Video
ID : 0
Format : MPEG-4 Visual
Format profile : Advanced [email protected]
Format settings, BVOP : Yes
Format settings, QPel : No
Format settings, GMC : No warppoints
Format settings, Matrix : Default (MPEG)
Codec ID : XVID
Codec ID/Hint : XviD
Duration : 1h 33mn
Bit rate : 1 833 Kbps
Width : 720 pixels
Height : 400 pixels
Display aspect ratio : 16:9
Frame rate : 23.976 fps
Resolution : 8 bits
Colorimetry : 4:2:0
Scan type : Progressive
Bits/(Pixel*Frame) : 0.265
Stream size : 1.20 GiB (82%)
Writing library : XviD 1.2.0.dev47 (UTC 2006-11-01)
Audio #1
ID : 1
Format : AC-3
Format/Info : Audio Coding 3
Format_Settings_ModeExtension : CM (complete main)
Codec ID : 2000
Duration : 1h 33mn
Bit rate mode : Constant
Bit rate : 192 Kbps
Channel(s) : 1 channel
Channel positions : Front: C
Sampling rate : 48.0 KHz
Stream size : 128 MiB (9%)
Alignment : Split accross interleaves
Interleave, duration : 42 ms (1.00 video frame)
Interleave, preload duration : 500 ms
Audio #2
ID : 2
Format : AC-3
Format/Info : Audio Coding 3
Format_Settings_ModeExtension : CM (complete main)
Codec ID : 2000
Duration : 1h 33mn
Bit rate mode : Constant
Bit rate : 192 Kbps
Channel(s) : 1 channel
Channel positions : Front: C
Sampling rate : 48.0 KHz
Stream size : 128 MiB (9%)
Alignment : Split accross interleaves
Interleave, duration : 42 ms (1.00 video frame)
Interleave, preload duration : 500 ms

Скриншоты



не забудьте нажать

Создавать темы 24-Фев-2014 14:56

[Профиль]  [ЛС] 

evil-tashkenta

Стаж: 5 лет 10 месяцев

Сообщений: 17

razor2011 А случайно у кого-нибудь есть Мальтийский сокол.....

Создавать темы 24-Фев-2014 19:17

[Профиль]  [ЛС] 
Показать сообщения:    
Ответить на тему

Текущее время: 24-Ноя 05:29

Часовой пояс: UTC + 5



Вы не можете начинать темы
Вы не можете отвечать на сообщения
Вы не можете редактировать свои сообщения
Вы не можете удалять свои сообщения
Вы не можете голосовать в опросах
Вы не можете прикреплять файлы к сообщениям
Вы не можете скачивать файлы