13-й район. Дилогия / Banlieue 13. Dilogy (Пьер Морел) [2006 г., фантастика, боевик., BDRip-AVC]

Ответить на тему
 

Izzatbek ®

Стаж: 3 года 11 месяцев

Сообщений: 2

13-й район. Дилогия / Banlieue 13. Dilogy

13-й район

13-й район/ Banlieue 13-- --Год выпуска: 2006
Страна: Франция
Жанр: фантастика, боевик.
Продолжительность: 01:24:00
Перевод: Профессиональный (полное дублирование)--Режиссер: Пьер Морел--В ролях: Франсуа Шатто, Мусса Мааскри, Самир Гесми, Сирил Раффаэлли, Тони Д'Амарио, Биби Насери, Даниэль Дюваль, Дани Вериссимо, Милан Ойданич, Дэвид Белль, Николас Войрион, Патрик Оливье, Тарик Бусехин--Описание: 2013 год, Париж, из-за разгула преступности некоторые особо опасные районы французской столицы превращены в закрытые зоны и отгорожены от благополучных кварталов бетонной стеной. За ней бурлит совсем другая жизнь: здесь процветает торговля наркотиками и оружием, здесь даже дети не выходят из дома без оружия, здесь давно не работают школы и поликлиники, здесь полиция не стоит на страже закона, а лишь защищает себя или же сама поддерживает беззаконие. Главарю одной из банд удается завладеть нейтронной бомбой. Чтобы обезвредить ее, в 13-й район отправляется офицер спецназ Дамьен. Проникать в опасные зоны — его профессия, однако на этот раз ему все-таки нужен проводник. Союзником Дамьена становится Лейто, отчаянный парень, сестра которого похищена тем же самым главарем…--Доп. информация: Субтитры: Русские, Английские-только для 13-й район
Сохранены оригинальные чаптеры Blu-Ray--Качество: BDRip-AVC
Формат: MKV
Видео кодек: H.26x
Аудио кодек: AC3
Видео: 6754 kb/s, 1920x816, 23.976 fps (24 fps)
Аудио: AC3, 448 kb/s (6Ch)

Скриншоты




13-й район ультиматиум

13-й район ультиматиум/ Banlieue 13 ultimatum-- --Год выпуска: 2009
Страна: Франция
Жанр: фантастика, боевик.
Продолжительность: 01:41:00
Перевод: Профессиональный (полное дублирование)--Режиссер: Пьер Морел--В ролях: Франсуа Шатто, Мусса Мааскри, Самир Гесми, Сирил Раффаэлли, Тони Д'Амарио, Биби Насери, Даниэль Дюваль, Дани Вериссимо, Милан Ойданич, Дэвид Белль, Николас Войрион, Патрик Оливье, Тарик Бусехин--Описание: 2013 год, Париж, из-за разгула преступности некоторые особо опасные районы французской столицы превращены в закрытые зоны и отгорожены от благополучных кварталов бетонной стеной. За ней бурлит совсем другая жизнь: здесь процветает торговля наркотиками и оружием, здесь даже дети не выходят из дома без оружия, здесь давно не работают школы и поликлиники, здесь полиция не стоит на страже закона, а лишь защищает себя или же сама поддерживает беззаконие. Главарю одной из банд удается завладеть нейтронной бомбой. Чтобы обезвредить ее, в 13-й район отправляется офицер спецназ Дамьен. Проникать в опасные зоны — его профессия, однако на этот раз ему все-таки нужен проводник. Союзником Дамьена становится Лейто, отчаянный парень, сестра которого похищена тем же самым главарем…--Качество: BDRip-AVC
Формат: MKV
Видео кодек: H.26x
Аудио кодек: AC3
Видео: 5827 kb/s, 1920x816, 23.976 fps (24 fps)
Аудио: AC3, 384 kb/s (6Ch)

Скриншоты






Последний раз редактировалось: Izzatbek (2014-04-06 14:22), всего редактировалось 3 раз(а)

Создавать темы 24-Фев-2014 17:54

[Профиль]  [ЛС] 

Tolik4523

Стаж: 5 лет 9 месяцев

Сообщений: 271

Симпатии: 27

Дани Вериссимо из второй части, французская порно актриса под псевдонимом Ally Mac Tyana.

Создавать темы 24-Фев-2014 20:25

[Профиль]  [ЛС] 

djek

Стаж: 5 лет 10 месяцев

Сообщений: 90

Симпатии: 4

Izzatbek, раздай по полный !

Создавать темы 24-Фев-2014 21:58

[Профиль]  [ЛС] 

victor0778

Стаж: 6 лет 8 месяцев

Сообщений: 1670

Симпатии: 142

Izzatbek, Аудио: AC3, 448 kb/s или (384 kb/s) (6Ch)??? Продолжительность: 01:24:00 + 01:41:00

Создавать темы 25-Фев-2014 01:32

[Профиль]  [ЛС] 

megabyte

Стаж: 5 лет 3 месяца

Сообщений: 218

Симпатии: 69

MI 13-й район

General
Format : Matroska
Format version : Version 2
File size : 4.32 GiB
Duration : 1h 24mn
Overall bit rate : 7 316 Kbps
Movie name : 13-й район / Banlieue 13 (2004) BDRip 1080p-Rip by Neofilm for Neoclub.net
Encoded date : UTC 2011-07-30 04:32:34
Writing application : mkvmerge v3.3.0 ('Language') built on Mar 24 2010 14:59:24
Writing library : libebml v0.8.0 + libmatroska v0.9.0
Attachment : Yes
Video
ID : 1
Format : AVC
Format/Info : Advanced Video Codec
Format profile : High@L4.1
Format settings, CABAC : Yes
Format settings, ReFrames : 4 frames
Format settings, GOP : M=1, N=48
Codec ID : V_MPEG4/ISO/AVC
Duration : 1h 24mn
Bit rate : 6 754 Kbps
Width : 1 920 pixels
Height : 816 pixels
Display aspect ratio : 2.35:1
Frame rate : 23.976 fps
Color space : YUV
Chroma subsampling : 4:2:0
Bit depth : 8 bits
Scan type : Progressive
Bits/(Pixel*Frame) : 0.180
Stream size : 3.97 GiB (92%)
Title : 13-й район / Banlieue 13 (2004)
Writing library : x264 core 115 r1995 c1e60b9
Encoding settings : cabac=1 / ref=4 / deblock=1:-3:-3 / analyse=0x3:0x113 / me=umh / subme=10 / psy=1 / psy_rd=1.00:0.00 / mixed_ref=1 / me_range=32 / chroma_me=1 / trellis=2 / 8x8dct=1 / cqm=0 / deadzone=21,11 / fast_pskip=0 / chroma_qp_offset=-2 / threads=6 / sliced_threads=0 / nr=0 / decimate=0 / interlaced=0 / bluray_compat=0 / constrained_intra=0 / bframes=2 / b_pyramid=2 / b_adapt=2 / b_bias=0 / direct=3 / weightb=1 / open_gop=0 / weightp=2 / keyint=250 / keyint_min=23 / scenecut=40 / intra_refresh=0 / rc_lookahead=60 / rc=2pass / mbtree=1 / bitrate=6754 / ratetol=1.0 / qcomp=0.60 / qpmin=10 / qpmax=51 / qpstep=4 / cplxblur=20.0 / qblur=0.5 / vbv_maxrate=40000 / vbv_bufsize=40000 / nal_hrd=none / ip_ratio=1.40 / aq=1:1.00
Language : English
Audio
ID : 2
Format : AC-3
Format/Info : Audio Coding 3
Mode extension : CM (complete main)
Codec ID : A_AC3
Duration : 1h 24mn
Bit rate mode : Constant
Bit rate : 448 Kbps
Channel(s) : 6 channels
Channel positions : Front: L C R, Side: L R, LFE
Sampling rate : 48.0 KHz
Bit depth : 16 bits
Compression mode : Lossy
Stream size : 271 MiB (6%)
Title : 3/2+1
Language : Russian
Text #1
ID : 3
Format : PGS
Codec ID : S_HDMV/PGS
Codec ID/Info : The same subtitle format used on BDs/HD-DVDs
Language : English
Text #2
ID : 4
Format : PGS
Codec ID : S_HDMV/PGS
Codec ID/Info : The same subtitle format used on BDs/HD-DVDs
Language : Russian
Menu
00:00:00.000 : en:Chapter 00
00:02:41.161 : en:Chapter 01
00:11:35.653 : en:Chapter 02
00:13:04.408 : en:Chapter 03
00:19:58.155 : en:Chapter 04
00:22:46.573 : en:Chapter 05
00:33:25.628 : en:Chapter 06
00:36:13.171 : en:Chapter 07
00:43:31.233 : en:Chapter 08
00:49:39.518 : en:Chapter 09
00:55:43.298 : en:Chapter 10
01:02:22.363 : en:Chapter 11
01:05:42.897 : en:Chapter 12
01:08:56.423 : en:Chapter 13
01:14:46.440 : en:Chapter 14
01:20:32.118 : en:Chapter 15

MI 13-й район: Ультиматум

General
Format : Matroska
Format version : Version 2
File size : 4.37 GiB
Duration : 1h 40mn
Overall bit rate : 6 209 Kbps
Movie name : 13-й район: Ультиматум / Banlieue 13 Ultimatum (2009) BDRip 1080p-Rip by Neofilm for Neoclub.net
Encoded date : UTC 2011-07-30 05:25:46
Writing application : mkvmerge v3.3.0 ('Language') built on Mar 24 2010 14:59:24
Writing library : libebml v0.8.0 + libmatroska v0.9.0
Video
ID : 1
Format : AVC
Format/Info : Advanced Video Codec
Format profile : High@L4.1
Format settings, CABAC : Yes
Format settings, ReFrames : 4 frames
Codec ID : V_MPEG4/ISO/AVC
Duration : 1h 40mn
Bit rate : 5 827 Kbps
Width : 1 920 pixels
Height : 816 pixels
Display aspect ratio : 2.35:1
Frame rate : 24.000 fps
Color space : YUV
Chroma subsampling : 4:2:0
Bit depth : 8 bits
Scan type : Progressive
Bits/(Pixel*Frame) : 0.155
Stream size : 4.01 GiB (92%)
Title : 13-й район: Ультиматум / Banlieue 13 Ultimatum (2009) BDRip 1080p
Writing library : x264 core 115 r1995 c1e60b9
Encoding settings : cabac=1 / ref=4 / deblock=1:-3:-3 / analyse=0x3:0x113 / me=umh / subme=10 / psy=1 / psy_rd=1.00:0.00 / mixed_ref=1 / me_range=32 / chroma_me=1 / trellis=2 / 8x8dct=1 / cqm=0 / deadzone=21,11 / fast_pskip=0 / chroma_qp_offset=-2 / threads=6 / sliced_threads=0 / nr=0 / decimate=0 / interlaced=0 / bluray_compat=0 / constrained_intra=0 / bframes=2 / b_pyramid=2 / b_adapt=2 / b_bias=0 / direct=3 / weightb=1 / open_gop=0 / weightp=2 / keyint=250 / keyint_min=23 / scenecut=40 / intra_refresh=0 / rc_lookahead=60 / rc=2pass / mbtree=1 / bitrate=5827 / ratetol=1.0 / qcomp=0.60 / qpmin=10 / qpmax=51 / qpstep=4 / cplxblur=20.0 / qblur=0.5 / vbv_maxrate=40000 / vbv_bufsize=40000 / nal_hrd=none / ip_ratio=1.40 / aq=1:1.00
Language : English
Audio
ID : 2
Format : AC-3
Format/Info : Audio Coding 3
Mode extension : CM (complete main)
Codec ID : A_AC3
Duration : 1h 40mn
Bit rate mode : Constant
Bit rate : 384 Kbps
Channel(s) : 6 channels
Channel positions : Front: L C R, Side: L R, LFE
Sampling rate : 48.0 KHz
Bit depth : 16 bits
Compression mode : Lossy
Stream size : 277 MiB (6%)
Title : Дубляж
Language : Russian
Menu
00:00:00.000 : en:Chapter 00
00:06:37.375 : en:Chapter 01
00:12:06.625 : en:Chapter 02
00:18:46.708 : en:Chapter 03
00:23:48.250 : en:Chapter 04
00:28:50.250 : en:Chapter 05
00:34:39.666 : en:Chapter 06
00:39:55.833 : en:Chapter 07
00:43:54.416 : en:Chapter 08
00:51:13.625 : en:Chapter 09
00:55:50.833 : en:Chapter 10
01:02:29.500 : en:Chapter 11
01:08:22.750 : en:Chapter 12
01:17:16.666 : en:Chapter 13
01:25:44.291 : en:Chapter 14
01:33:22.666 : en:Chapter 15

Создавать темы 25-Фев-2014 01:53

[Профиль]  [ЛС] 

bobsansaba

Стаж: 3 года 10 месяцев

Сообщений: 45

Симпатии: 4

784264Кинони куринг тасвири HD
Thanks mb

Создавать темы 25-Фев-2014 02:56

[Профиль]  [ЛС] 

Mercuriy

Стаж: 5 лет 11 месяцев

Сообщений: 418

Симпатии: 100

Дауж. затоптались на месте((((

Создавать темы 03-Мар-2014 00:43

[Профиль]  [ЛС] 

maxuz

Стаж: 6 лет 8 месяцев

Сообщений: 55

Симпатии: 3

помогу с раздачей

Создавать темы 05-Мар-2014 20:19

[Профиль]  [ЛС] 

iLoVeTheDiLyOrA

Стаж: 5 лет 9 месяцев

Сообщений: 68

Симпатии: 2

на раздачу встаньте всего лиж ничего осталось скачать

Создавать темы 14-Июл-2014 13:01

[Профиль]  [ЛС] 
Показать сообщения:    
Ответить на тему

Текущее время: 23-Окт 09:32

Часовой пояс: UTC + 5



Вы не можете начинать темы
Вы не можете отвечать на сообщения
Вы не можете редактировать свои сообщения
Вы не можете удалять свои сообщения
Вы не можете голосовать в опросах
Вы не можете прикреплять файлы к сообщениям
Вы не можете скачивать файлы