Параллельные миры / Параллельные миры (Ермек Аманшаев) [2013, Мелодрама, DVDRip]

Ответить на тему
 

Каротажник ®

Стаж: 4 года 2 месяца

Сообщений: 195

Симпатии: 211

Параллельные миры

Год выпуска: 2013
Страна: Россия, Казахстан
Жанр: Мелодрама
Продолжительность: 01:24:30
Перевод: не требуется [Чистый звук]

Режиссёр: Ермек Аманшаев
В ролях: Алена Бабенко, Берик Айтжанов, Евгений Стычкин, Дастен Шакиров, Александра Морозова, Арман Асенов, Алия Телебарисова, Бибигуль Суюншалина, Ольга Коржева


Она одинока. Он случайно оказывается на ее балконе. Завязывается разговор, потом танец, потом странная перестановка в комнате - и все в её жизни меняется. Через балкон он нечаянно находит путь к её сердцу, через балкон он уходит, проникнув и изменив всё в глубинах её души.




Качество: DVDRip
Формат: Avi
Видео: XviD, 2049 Кбит/с, 720x400
Аудио: AC3, 6 ch, 256 Кбит/с

Media Info

Format : AVI
Format/Info : Audio Video Interleave
File size : 1.37 GiB
Duration : 1h 24mn
Overall bit rate : 2 316 Kbps
Writing application : VirtualDubMod 1.5.10.3 | www.virtualdub-fr.org || (build 2550/release)
Writing library : VirtualDubMod build 2550/release
Video
ID : 0
Format : MPEG-4 Visual
Format profile : Advanced [email protected]
Format settings, BVOP : 2
Format settings, QPel : No
Format settings, GMC : No warppoints
Format settings, Matrix : Default (MPEG)
Codec ID : XVID
Codec ID/Hint : XviD
Duration : 1h 24mn
Bit rate : 2 050 Kbps
Width : 720 pixels
Height : 400 pixels
Display aspect ratio : 16:9
Frame rate : 25.000 fps
Color space : YUV
Chroma subsampling : 4:2:0
Bit depth : 8 bits
Scan type : Progressive
Compression mode : Lossy
Bits/(Pixel*Frame) : 0.285
Stream size : 1.21 GiB (89%)
Writing library : XviD 1.2.1 (UTC 2008-12-04)
Audio
ID : 1
Format : AC-3
Format/Info : Audio Coding 3
Mode extension : CM (complete main)
Format settings, Endianness : Big
Codec ID : 2000
Duration : 1h 24mn
Bit rate mode : Constant
Bit rate : 256 Kbps
Channel(s) : 6 channels
Channel positions : Front: L C R, Side: L R, LFE
Sampling rate : 48.0 KHz
Bit depth : 16 bits
Compression mode : Lossy
Stream size : 155 MiB (11%)
Alignment : Split accross interleaves
Interleave, duration : 40 ms (1.00 video frame)
Interleave, preload duration : 500 ms

Скриншоты


Создавать темы 24-Фев-2014 22:20

[Профиль]  [ЛС] 

Loky

Стаж: 4 года 5 месяцев

Сообщений: 75

Симпатии: 8

интересный?!

Создавать темы 26-Фев-2014 00:50

[Профиль]  [ЛС] 

Jnec

Стаж: 5 лет 1 месяц

Сообщений: 165

Спаибо!!!

Создавать темы 27-Фев-2014 10:20

[Профиль]  [ЛС] 

азад шерметов

Стаж: 5 лет 10 месяцев

Сообщений: 3

подскажите как благодарить раньше вроде была такая такая кнопка

Создавать темы 18-Апр-2014 21:17

[Профиль]  [ЛС] 

Astrolog

Стаж: 5 лет 6 месяцев

Сообщений: 213

Симпатии: 27

814786подскажите как благодарить раньше вроде была такая такая кнопка

Скриншоты

Создавать темы 18-Апр-2014 23:40

[Профиль]  [ЛС] 
Показать сообщения:    
Ответить на тему

Текущее время: 18-Дек 08:23

Часовой пояс: UTC + 5



Вы не можете начинать темы
Вы не можете отвечать на сообщения
Вы не можете редактировать свои сообщения
Вы не можете удалять свои сообщения
Вы не можете голосовать в опросах
Вы не можете прикреплять файлы к сообщениям
Вы не можете скачивать файлы