Пуля / Bullet (Ник Лион / Nick Lyon) (2014 г.,Боевик, криминал, HDRip)| MVO

Ответить на тему
 

Suxrob89 ®

Стаж: 7 лет 4 месяца

Сообщений: 933

Симпатии: 564

-Пуля / Bullet- Год выпуска: 2014
Производство: США / Giant Ape Media, SC Films International
Жанр: Боевик, криминал
Продолжительность: 01:27:16
Перевод: Профессиональный многоголосый (Baibako)-Режиссер: Ник Лион / Nick Lyon
Продюсер: Мэттью Джойнс, Ник Лион, Роберт Родригез-В ролях: Дэнни Трехо, Торстен Фогс, Джонатан Бэнкс, Кайл Вильяловос, Ив Мауро, Шери ДеЯнг, Эрик Блоссом, Джералд Уэбб, Тинсел Кори, Эрик Этебари-О фильме: Пуля — это прозвище бескомпромиссного и жестокого полицейского, для которого борьба с преступностью является смыслом его жизни. В один ужасный день мафия похищает его внука, сама того не понимая какие неприятности на себя навлекая. Пуля берет закон в свои руки и начинает вершить правосудие без суда и следствия.-Бюджет: $3 000 000
Дата мировой премьеры: 25 февраля 2014
Дата российской премьеры: 29 мая 2014, «All Media»
Дата выхода DVD релиза: Нет информации-Внимание!!! Присутствует ненормативная лексика.
Рейтинг PG-18 - Детям до 17 лет обязательно присутствие родителей
- -Качество: HDRip [Bullet 2014 1080p BluRay AVC TrueHD 5.1-PublicHD]
Формат: AVI
Видео: XviD,720x304, 1849 Кбит/сек, 23,976 кадра/сек
Аудио: AC-3, 384 Кбит/сек, 6 каналов, 48,0 КГц

Media info

Общее
Полное имя                               :Pulya.2014.P.HDRip.1400MB.nnm-club.avi
Формат                                   : AVI
Формат/Информация                        : Audio Video Interleave
Размер файла                             : 1,37 Гбайт
Продолжительность                        : 1 ч. 27 м.
Общий поток                              : 2242 Кбит/сек
Программа кодирования                    : VirtualDubMod 1.5.10.2 (build 2540/release)
Библиотека кодирования                   : VirtualDubMod build 2540/release
Видео
Идентификатор                            : 0
Формат                                   : MPEG-4 Visual
Профиль формата                          : Advanced [email protected]
Параметр BVOP формата                    : 2
Параметр QPel формата                    : Нет
Параметр GMC формата                     : Без точки перехода
Параметр матрицы формата                 : Выборочная
Идентификатор кодека                     : XVID
Идентификатор кодека/Подсказка           : XviD
Продолжительность                        : 1 ч. 27 м.
Битрейт                                  : 1849 Кбит/сек
Ширина                                   : 720 пикселей
Высота                                   : 304 пикселя
Соотношение сторон                       : 2,35:1
Частота кадров                           : 23,976 кадра/сек
Цветовое пространство                    : YUV
Субдискретизация насыщенности            : 4:2:0
Битовая глубина                          : 8 бит
Тип развёртки                            : Прогрессивная
Метод сжатия                             : С потерями
Бит/(Пиксели*Кадры)                      : 0.352
Размер потока                            : 1,13 Гбайт (82%)
Библиотека кодирования                   : XviD 1.2.1 (UTC 2008-12-04)
Аудио
Идентификатор                            : 1
Формат                                   : AC-3
Формат/Информация                        : Audio Coding 3
Расширение режима                        : CM (complete main)
Параметр Endianness формата              : Big
Идентификатор кодека                     : 2000
Продолжительность                        : 1 ч. 27 м.
Вид битрейта                             : Постоянный
Битрейт                                  : 384 Кбит/сек
Каналы                                   : 6 каналов
Расположение каналов                     : Front: L C R, Side: L R, LFE
Частота                                  : 48,0 КГц
Битовая глубина                          : 16 бит
Метод сжатия                             : С потерями
Размер потока                            : 240 Мбайт (17%)
Выравнивание                             : Разделение по промежуткам
Продолжительность промежутка             : 42  мс. (1,00 видеокадр)
Время предзагрузки промежутка            : 500  мс.

Скриншоты








Последний раз редактировалось: Suxrob89 (2014-03-04 06:44), всего редактировалось 2 раз(а)

Создавать темы 25-Фев-2014 07:23

[Профиль]  [ЛС] 

Топик был перенесен из форума Фильмы за 2014 (новинки) в форум HD-AVC
Suxrob89

Создавать темы 25-Фев-2014 07:23

 

victor0778

Стаж: 6 лет 10 месяцев

Сообщений: 1670

Симпатии: 142

Suxrob89,
Перевод как то так, всё таки надо указывать что это Baibako

Создавать темы 04-Мар-2014 07:46

[Профиль]  [ЛС] 

namozbek

Стаж: 3 года 10 месяцев

Сообщений: 1

is it nice movie?

Информация от victor0778


3.16. Использовать в общении на форуме язык, отличный от русского, и шрифт, отличный от кириллического

Создавать темы 04-Мар-2014 18:26

[Профиль]  [ЛС] 

icefrog_ss

Стаж: 5 лет 3 месяца

Сообщений: 69

Симпатии: 3

Спасибо!!!

Создавать темы 04-Мар-2014 18:46

[Профиль]  [ЛС] 

mumin_rayono

Стаж: 4 года 2 месяца

Сообщений: 1

фильм какой?

Создавать темы 04-Мар-2014 20:34

[Профиль]  [ЛС] 

stan_uz

Стаж: 4 года 6 месяцев

Сообщений: 22

788795фильм какой?
ТВ-3

Создавать темы 04-Мар-2014 21:20

[Профиль]  [ЛС] 

Manson

Стаж: 7 лет 6 месяцев

Сообщений: 92

Симпатии: 19

Как же достали - то Мачете, теперь Пуля. Трехо вообще скатился... хоть и раньше не блестал

Создавать темы 04-Мар-2014 21:34

[Профиль]  [ЛС] 

Volk

Стаж: 4 года 10 месяцев

Сообщений: 27

Симпатии: 1

1. Мачете
2. Пуля
3. ??? может "Кастет" или "Бита"?

Создавать темы 20-Мар-2014 09:03

[Профиль]  [ЛС] 

shox26

Стаж: 4 года 1 месяц

Сообщений: 4

стоит скачат что скажите

Создавать темы 20-Мар-2014 22:10

[Профиль]  [ЛС] 

Ahat

Стаж: 4 года 2 месяца

Сообщений: 27

7987101. Мачете
2. Пуля
3. ??? может "Кастет" или "Бита"?
Неа, следующий "граната" или "мина" ag

Создавать темы 20-Мар-2014 22:28

[Профиль]  [ЛС] 

timbigwig

Стаж: 7 лет 1 месяц

Сообщений: 7

дайте скорсть

Создавать темы 24-Мар-2014 20:15

[Профиль]  [ЛС] 
Показать сообщения:    
Ответить на тему

Текущее время: 16-Дек 14:10

Часовой пояс: UTC + 5



Вы не можете начинать темы
Вы не можете отвечать на сообщения
Вы не можете редактировать свои сообщения
Вы не можете удалять свои сообщения
Вы не можете голосовать в опросах
Вы не можете прикреплять файлы к сообщениям
Вы не можете скачивать файлы