Слева от центра / Left of center (Дейв Норман ) [2013, Триллер , WEB-DLRip]

Ответить на тему
 

Каротажник ®

Стаж: 3 года 11 месяцев

Сообщений: 195

Симпатии: 211

Слева от центра / Left of center
Год выпуска: 2013
Страна: США
Жанр: Триллер
Продолжительность: 80 мин.
Перевод: Любительское (двухголосое) [HamsterStudio]-Режиссёр: Дейв Норман
В ролях: Брайсон Бэйкер, Джейсон Уилкинсон, Джэми Харрис, Лорен Кастер, Brian Gililland, Там Джексон, Дастин Уилсон, Chris Harris, Дастин Чадуэлл, Scott Jenkins-
В маленьком городке в Северной Оклахоме, вдоль трассы 177, происходит серия убийств. В расследование оказываются вовлечены патрульный Джон Фергюсон и местный шеф полиции Том Паркер, которые оба лично заинтересованы найти убийцу. По ходу расследования двое мужчин сталкиваются с пугающими открытиями и тёмными секретами местной общины.-
Качество: WEB-DLRip
Формат: Avi
Видео: XviD,1147 kb/s, 720x400
Аудио: Russian / English: MP3, 128 kb/s (2 ch)

Media Info

General
Complete name : E:\Kino\russ\Left.of.center.WEB-DLRip.HamsterStudio.avi
Format : AVI
Format/Info : Audio Video Interleave
File size : 1.15 GiB
Duration : 1h 20mn
Overall bit rate : 2 050 Kbps
Writing application : VirtualDubModRus 1.5.10.2 (build 2540/release)
Writing library : VirtualDubMod build 2540/release
Video
ID : 0
Format : MPEG-4 Visual
Format profile : Advanced [email protected]
Format settings, BVOP : 1
Format settings, QPel : No
Format settings, GMC : No warppoints
Format settings, Matrix : Default (H.263)
Codec ID : XVID
Codec ID/Hint : XviD
Duration : 1h 20mn
Bit rate : 1 781 Kbps
Width : 720 pixels
Height : 400 pixels
Display aspect ratio : 16:9
Frame rate : 23.976 fps
Color space : YUV
Chroma subsampling : 4:2:0
Bit depth : 8 bits
Scan type : Progressive
Compression mode : Lossy
Bits/(Pixel*Frame) : 0.258
Stream size : 1 022 MiB (87%)
Writing library : XviD 1.2.1 (UTC 2008-12-04)
Audio #1
ID : 1
Format : MPEG Audio
Format version : Version 1
Format profile : Layer 3
Mode : Joint stereo
Mode extension : MS Stereo
Codec ID : 55
Codec ID/Hint : MP3
Duration : 1h 20mn
Bit rate mode : Constant
Bit rate : 128 Kbps
Channel(s) : 2 channels
Sampling rate : 48.0 KHz
Compression mode : Lossy
Stream size : 73.4 MiB (6%)
Alignment : Aligned on interleaves
Interleave, duration : 42 ms (1.00 video frame)
Interleave, preload duration : 504 ms
Audio #2
ID : 2
Format : MPEG Audio
Format version : Version 1
Format profile : Layer 3
Codec ID : 55
Codec ID/Hint : MP3
Duration : 1h 20mn
Bit rate mode : Constant
Bit rate : 128 Kbps
Channel(s) : 2 channels
Sampling rate : 48.0 KHz
Compression mode : Lossy
Stream size : 73.4 MiB (6%)
Alignment : Aligned on interleaves
Interleave, duration : 42 ms (1.00 video frame)
Interleave, preload duration : 504 ms
Writing library : LAME3.99r
Encoding settings : -m s -V 4 -q 2 -lowpass 17 -b 128

Скриншоты


Создавать темы 26-Фев-2014 10:14

[Профиль]  [ЛС] 

ziyod

Стаж: 7 лет 6 месяцев

Сообщений: 367

Симпатии: 60

Следующий раз, не делайте такие самодельные с низким разрешением постеры!!! Глаза уже болят...

Создавать темы 26-Фев-2014 15:44

[Профиль]  [ЛС] 

4731000

Стаж: 5 лет 7 месяцев

Сообщений: 13

785387Глаза уже болят...
засмотрелся что ли?!

Создавать темы 26-Фев-2014 18:39

[Профиль]  [ЛС] 

outoforder

Стаж: 4 года 10 месяцев

Сообщений: 812

Симпатии: 172

Вряд ли это триллер конечно. Вроде драма. Сойдет на разок.

Создавать темы 06-Июл-2014 19:48

[Профиль]  [ЛС] 
Показать сообщения:    
Ответить на тему

Текущее время: 24-Сен 20:59

Часовой пояс: UTC + 5



Вы не можете начинать темы
Вы не можете отвечать на сообщения
Вы не можете редактировать свои сообщения
Вы не можете удалять свои сообщения
Вы не можете голосовать в опросах
Вы не можете прикреплять файлы к сообщениям
Вы не можете скачивать файлы