Уличные Танцы 2 / Street Dance 2 (Макс Джива, Дания Пасквини / Max Giwa, Dania Pasquini) [2012, Великобритания, Германия, мелодрама, музыка, BDRip 1080p] DUB + Original Eng + Sub (Rus, Eng)

Ответить на тему
 

Phantomhive ®

Стаж: 4 года 5 месяцев

Сообщений: 218

Симпатии: 10

Уличные Танцы 2 / Street Dance 2«В два раза больше энергии и страсти»- Год выпуска: 2012
Страна: Великобритания, Германия
Жанр: Мелодрама, Музыка
Студия: Vertigo Films, BBC Films, British Film Institute
Продолжительность: 01:24:56
Перевод: Профессиональный (полное дублирование) [лицензия]
Cубтитры: русские, английские
Оригинальная аудиодорожка: английский-Режиссер: Макс Джива / Max Giwa, Дания Пасквини / Dania Pasquini-В ролях: София Бутелла, Джордж Сэмпсон, Том Конти, Фальк Хеншел, Стефани Нгуйен, Элла Рэгг, Джоанна Джеффрис, Джеймс Майкл Ранкин, Ли Крэвен, Элизабетта Ди Карло
-Описание: Уличный танцор Эш жаждет реванша за проигрыш на конкурсе Streetdance, и хочет собрать команду, которой не будет равных. В поисках, которые забрасывают его в самые разные уголки мира, Эш встречает девушку Еву, танцующую сальсу, и влюбляется в нее. В Еве он видит свое счастье, свой собственный танец, свою победу… Но завоевать сердце этой девушки не так просто.
Свобода самовыражения и мастерство импровизации, страсть сальсы и дерзость ринга — все это танцы, танцы, танцы — в школах, в клубах, на улицах Рима, Парижа, Лондона, Нью-Йорка.
-Качество: BDRip 1080p [HDChina]
Формат: MKV
Видео: MPEG-4 AVC, 1920x1036 (1.85:1), at 23.976 fps, ~14.2 Mbps avg, High Profile 4.1
Аудио: DTS, 48 kHz, 3/2 (L,C,R,l,r) + LFE ch, ~1510 kbps avg [Russian] |Дубляж|
Аудио 2: DTS, 48 kHz/24-bit, 3/2 (L,C,R,l,r) + LFE ch, ~755.00 kbps avg [English]
Формат субтитров: softsub (SRT) Russian, English (Full, SDH)-

MediaInfo

General
Unique ID : 212003089438098881312104779018818024318 (0x9F7E4F50B35CF1C2BDD24CD85D0FF37E)
Complete name : F:\Уличные Танцы\Уличные Танцы 2\Уличные Танцы 2.mkv
Format : Matroska
Format version : Version 2
File size : 9.98 GiB
Duration : 1h 24mn
Overall bit rate : 16.8 Mbps
Movie name : Street.Dance.2.2012.BDRip.1080p - **RVS**
Encoded date : UTC 2012-08-10 02:45:43
Writing application : mkvmerge v5.7.0 ('The Whirlwind') built on Jul 8 2012 20:08:51
Writing library : libebml v1.2.3 + libmatroska v1.3.0
Video
ID : 1
Format : AVC
Format/Info : Advanced Video Codec
Format profile : [email protected]
Format settings, CABAC : Yes
Format settings, ReFrames : 4 frames
Codec ID : V_MPEG4/ISO/AVC
Duration : 1h 24mn
Bit rate : 14.2 Mbps
Width : 1 920 pixels
Height : 1 036 pixels
Display aspect ratio : 1.85:1
Frame rate mode : Constant
Frame rate : 23.976 fps
Color space : YUV
Chroma subsampling : 4:2:0
Bit depth : 8 bits
Scan type : Progressive
Bits/(Pixel*Frame) : 0.298
Stream size : 8.43 GiB (84%)
Title : Street.Dance.2.2012.BDRip.1080p - **RVS**
Writing library : x264 core 125 r2207 5f615f7
Encoding settings : cabac=1 / ref=4 / deblock=1:-1:-1 / analyse=0x3:0x133 / me=umh / subme=10 / psy=1 / psy_rd=1.00:0.10 / mixed_ref=1 / me_range=32 / chroma_me=1 / trellis=2 / 8x8dct=1 / cqm=0 / deadzone=21,11 / fast_pskip=0 / chroma_qp_offset=-3 / threads=24 / lookahead_threads=4 / sliced_threads=0 / nr=0 / decimate=0 / interlaced=0 / bluray_compat=0 / constrained_intra=0 / bframes=8 / b_pyramid=2 / b_adapt=2 / b_bias=0 / direct=3 / weightb=1 / open_gop=0 / weightp=2 / keyint=360 / keyint_min=2 / scenecut=40 / intra_refresh=0 / rc_lookahead=250 / rc=crf / mbtree=1 / crf=18.0 / qcomp=0.70 / qpmin=0 / qpmax=69 / qpstep=4 / ip_ratio=1.40 / aq=1:1.00
Language : English
Default : Yes
Forced : No
Audio #1
ID : 2
Format : DTS
Format/Info : Digital Theater Systems
Mode : 16
Format settings, Endianness : Big
Codec ID : A_DTS
Duration : 1h 24mn
Bit rate mode : Constant
Bit rate : 1 509 Kbps
Channel(s) : 6 channels
Channel positions : Front: L C R, Side: L R, LFE
Sampling rate : 48.0 KHz
Bit depth : 16 bits
Compression mode : Lossy
Stream size : 917 MiB (9%)
Title : DTS 5.1 @ 1536 kbps - Дубляж
Language : Russian
Default : Yes
Forced : No
Audio #2
ID : 3
Format : DTS
Format/Info : Digital Theater Systems
Mode : 16
Format settings, Endianness : Big
Codec ID : A_DTS
Duration : 1h 24mn
Bit rate mode : Constant
Bit rate : 768 Kbps
Channel(s) : 6 channels
Channel positions : Front: L C R, Side: L R, LFE
Sampling rate : 48.0 KHz
Bit depth : 24 bits
Compression mode : Lossy
Stream size : 467 MiB (5%)
Title : DTS 5.1 @ 768 kbps - Original
Language : English
Default : No
Forced : No
Text #1
ID : 4
Format : UTF-8
Codec ID : S_TEXT/UTF8
Codec ID/Info : UTF-8 Plain Text
Language : Russian
Default : No
Forced : No
Text #2
ID : 5
Format : UTF-8
Codec ID : S_TEXT/UTF8
Codec ID/Info : UTF-8 Plain Text
Title : Full
Language : English
Default : No
Forced : No
Text #3
ID : 6
Format : UTF-8
Codec ID : S_TEXT/UTF8
Codec ID/Info : UTF-8 Plain Text
Title : SDH
Language : English
Default : No
Forced : No
Menu
00:00:00.000 : en:
00:10:29.795 : en:
00:16:55.973 : en:
00:22:43.612 : en:
00:29:28.056 : en:
00:38:23.968 : en:
00:43:38.114 : en:
00:49:39.059 : en:
00:57:08.758 : en:
01:02:48.014 : en:
01:07:11.902 : en:
01:13:45.295 : en:

Скриншоты

Создавать темы 27-Фев-2014 06:28

[Профиль]  [ЛС] 

Просто Миша

Стаж: 3 года 9 месяцев

Сообщений: 12

скорости плиз

Создавать темы 01-Ноя-2014 15:13

[Профиль]  [ЛС] 
Показать сообщения:    
Ответить на тему

Текущее время: 22-Ноя 14:20

Часовой пояс: UTC + 5



Вы не можете начинать темы
Вы не можете отвечать на сообщения
Вы не можете редактировать свои сообщения
Вы не можете удалять свои сообщения
Вы не можете голосовать в опросах
Вы не можете прикреплять файлы к сообщениям
Вы не можете скачивать файлы