Паутина (Сезон 4, Серии: 1-16 из 16) (Андрей Хрулев) [2009г., Криминал, Детектив, SATRip]

Ответить на тему
 

Mercuriy ®

Стаж: 5 лет 10 месяцев

Сообщений: 418

Симпатии: 100

--ПАУТИНА-(Сезон 4, Серии: с 1-й по 16-ю из 16)--- Год выпуска: 2009
Страна: Россия, Russia Компания [ФОРВАРД фильм] по заказу Телеканала НТВ
Жанр: Криминал, Детектив
Сезон: 4
Серии: 1-16 из 16
Продолжительность: ~ 00:45:00
Перевод: Не требуется--Режиссеры: Андрей Хрулев--В ролях: Олег Харитонов, Олег Филипчик, Юрий Брешин, Владимир Никитин, Юлия Михайлова, Вячеслав Бондарчук, Дмитрий Дорохов, Алла Малкова (Мараш), Олег Морозов, Виктор Фалалеев, Дмитрий Буренков, Максим Глотов, Ксения Дементьева, Дмитрий Комов, Арсений Спасибо, Наталья Винтилова, Иннокентий Тарабара--Описание: Продолжение сериала "Паутина". Начальник убойного отдела майор Туманов с капитаном Грековым разгадывают новые загадки очередного убийства. Снова Туманову угрожает опасность, снова Туманову приходится быстро думать и принимать решения.
Эта способность уже вошла в привычку, и в каждом своем движении Туманов нацелен на решение проблемы. Туманов и Греков в новом сезоне занимаются расследованием череды серийных убийств, раскрывают кровавую аферу банковских чиновников, выходя на след подпольного казино ставкой, которого является человеческая жизнь, и сталкиваются с нелегальной торговлей золотом. Мегаполис по-прежнему опутан паутиной из криминальных связей, с которыми приходится бороться Федору Туманову.
-- --

Скриншоты

--Качество: SATRip
Формат: AVI
Видео кодек: XviD
Аудио кодек: MP3
Видео: 704x384 (1.83:1) (16:9), 25 fps, XviD MPEG-4 codec, BitRate: ~1495 Kbps, 0.192 bit/pixel
Аудио: 48000 kHz, MPEG 1 or 2 Audio Layer 3 (MP3), 128kbps
--

MI:

E:\Кино_Видео_и_ТВ\Российские_сериалы\Паутина_[Pautina_(120_Seriy_iz_120)_2007-2013_DivX_XviD_VD-SatRip]\Pautina_(04)_Сезон_SATRip_704x384p_1495Kbps\Pautina-4.01 seriya.2011.SATRip-SVAT.avi
General
Complete name : E:\Кино_Видео_и_ТВ\Российские_сериалы\Паутина_[Pautina_(120_Seriy_iz_120)_2007-2013_DivX_XviD_VD-SatRip]\Pautina_(04)_Сезон_SATRip_704x384p_1495Kbps\Pautina-4.01 seriya.2011.SATRip-SVAT.avi
Format : AVI
Format/Info : Audio Video Interleave
File size : 501 MiB
Duration : 42mn 53s
Overall bit rate : 1 633 Kbps
Writing application : VirtualDubMod 1.5.10.3 | www.virtualdub-fr.org || (build 2550/release)
Writing library : VirtualDubMod build 2550/release
Video #0
ID : 0
Format : MPEG-4 Visual
Format profile : Advanced [email protected]
Format settings, BVOP : 1
Format settings, QPel : No
Format settings, GMC : No warppoints
Format settings, Matrix : Default (MPEG)
Codec ID : XVID
Codec ID/Hint : XviD
Duration : 42mn 53s
Bit rate : 1 495 Kbps
Width : 704 pixels
Height : 384 pixels
Display aspect ratio : 1.85:1
Frame rate : 25.000 fps
Color space : YUV
Chroma subsampling : 4:2:0
Bit depth : 8 bits
Scan type : Progressive
Compression mode : Lossy
Bits/(Pixel*Frame) : 0.221
Stream size : 459 MiB (92%)
Writing library : XviD 61
Audio #1
ID : 1
Format : MPEG Audio
Format version : Version 1
Format profile : Layer 3
Codec ID : 55
Codec ID/Hint : MP3
Duration : 42mn 53s
Bit rate mode : Constant
Bit rate : 128 Kbps
Channel(s) : 2 channels
Sampling rate : 48.0 KHz
Compression mode : Lossy
Stream size : 39.3 MiB (8%)
Alignment : Aligned on interleaves
Interleave, duration : 40 ms (1.00 video frame)
Interleave, preload duration : 504 ms
Writing library : LAME3.98r
Encoding settings : -m s -V 4 -q 2 -lowpass 17 -b 128
--

Создавать темы 27-Фев-2014 22:33

[Профиль]  [ЛС] 
Показать сообщения:    
Ответить на тему

Текущее время: 22-Сен 00:25

Часовой пояс: UTC + 5



Вы не можете начинать темы
Вы не можете отвечать на сообщения
Вы не можете редактировать свои сообщения
Вы не можете удалять свои сообщения
Вы не можете голосовать в опросах
Вы не можете прикреплять файлы к сообщениям
Вы не можете скачивать файлы