Ранчо Скинуолкер / Skinwalker Ranch (Девин МакДжинн / Devin McGinn) [2013, США, Ужасы, Фантастика, Триллер, BDRip] VO + Original Eng

Ответить на тему
 

Suxrob89 ®

Стаж: 7 лет 4 месяца

Сообщений: 933

Симпатии: 564

-Ранчо Скинуолкер / Skinwalker Ranch- Страна: США
Жанр: Ужасы, Фантастика, Триллер
Год выпуска: 2013
Продолжительность: 01:20:46-Перевод: Одноголосый закадровый [VANO]
Cубтитры: нет
Оригинальная аудиодорожка: Английский-Режиссер: Девин МакДжинн / Devin McGinn-В ролях: Девин МакДжинн, Джон Грайз, Кайл Дэвис, Мэттью Ришелье, Стив Берг, Эрин Кехилл-Описание: Фильм в стиле "найденные пленки", якобы основанный на реальных событиях, связанных с НЛО и случившихся на ранчо Скинуокер.
Отважная группа уфологов-исследователей ищет следы инопланетян и снимает на видео доказательства сверхъестественных проявлений. Они будут вести расследование мистической пропажи десятилетнего сына местного фермера...--Качество видео: BDRip [исх. Blu-Ray 1080p ]
Формат видео: AVI
Видео: Xvid, 720x400, 23.976fps, 1 482 Kbps
Аудио: Dolby AC3, 48000Hz, 6ch, 448kbps[RUS]
Аудио 2: Dolby AC3, 48000Hz 6ch, 448kbps[ENG]

MediaInfo

General
Complete name                  : E:\Видео\Skinwalker Ranch.BDRip.AC3.5.1Rus.Eng.avi
Format                         : AVI
Format/Info                    : Audio Video Interleave
File size                      : 1.35 GiB
Duration                       : 1h 20mn
Overall bit rate               : 2 392 Kbps
Writing application            : VirtualDubMod 1.5.10.2 (build 2540/release)
Writing library                : VirtualDubMod build 2540/release
Video
ID                             : 0
Format                         : MPEG-4 Visual
Format profile                 : Advanced [email protected]
Format settings, BVOP          : 1
Format settings, QPel          : No
Format settings, GMC           : No warppoints
Format settings, Matrix        : Default (MPEG)
Codec ID                       : XVID
Codec ID/Hint                  : XviD
Duration                       : 1h 20mn
Bit rate                       : 1 482 Kbps
Width                          : 720 pixels
Height                         : 400 pixels
Display aspect ratio           : 16:9
Frame rate                     : 23.976 fps
Color space                    : YUV
Chroma subsampling             : 4:2:0
Bit depth                      : 8 bits
Scan type                      : Progressive
Compression mode               : Lossy
Bits/(Pixel*Frame)             : 0.215
Stream size                    : 856 MiB (62%)
Writing library                : XviD 64
Audio #1
ID                             : 1
Format                         : AC-3
Format/Info                    : Audio Coding 3
Mode extension                 : CM (complete main)
Format settings, Endianness    : Big
Codec ID                       : 2000
Duration                       : 1h 20mn
Bit rate mode                  : Constant
Bit rate                       : 448 Kbps
Channel(s)                     : 6 channels
Channel positions              : Front: L C R, Side: L R, LFE
Sampling rate                  : 48.0 KHz
Bit depth                      : 16 bits
Compression mode               : Lossy
Stream size                    : 259 MiB (19%)
Alignment                      : Split accross interleaves
Interleave, duration           : 42 ms (1.00 video frame)
Interleave, preload duration   : 500 ms
Audio #2
ID                             : 2
Format                         : AC-3
Format/Info                    : Audio Coding 3
Mode extension                 : CM (complete main)
Format settings, Endianness    : Big
Codec ID                       : 2000
Duration                       : 1h 20mn
Bit rate mode                  : Constant
Bit rate                       : 448 Kbps
Channel(s)                     : 6 channels
Channel positions              : Front: L C R, Side: L R, LFE
Sampling rate                  : 48.0 KHz
Bit depth                      : 16 bits
Compression mode               : Lossy
Stream size                    : 259 MiB (19%)
Alignment                      : Split accross interleaves
Interleave, duration           : 42 ms (1.00 video frame)
Interleave, preload duration   : 500 ms

Скриншоты







Последний раз редактировалось: Suxrob89 (2014-03-03 05:50), всего редактировалось 1 раз

Создавать темы 28-Фев-2014 07:11

[Профиль]  [ЛС] 

Loky

Стаж: 4 года 5 месяцев

Сообщений: 75

Симпатии: 8

как фильмец?!

Создавать темы 28-Фев-2014 16:21

[Профиль]  [ЛС] 

lpger

Стаж: 5 лет 9 месяцев

Сообщений: 20

Режиссер: Девин МакДжинн / Devin McGinn
В ролях: Девин МакДжинн
сам себе режиссер

Создавать темы 28-Фев-2014 16:30

[Профиль]  [ЛС] 

axeman

Стаж: 5 лет 1 месяц

Сообщений: 380

Симпатии: 50

786551
Режиссер: Девин МакДжинн / Devin McGinn
В ролях: Девин МакДжинн
сам себе режиссер
скоро все будут так делать, СТАЛЛОНЕ,ШВАРЦНЕГГЕР,БРЕД ПИТ.........

Создавать темы 28-Фев-2014 18:10

[Профиль]  [ЛС] 

X3JumperRaZ0R

Стаж: 5 лет 5 месяцев

Сообщений: 177

Симпатии: 151

Это Типо как Паронормальное Явление Походу!)

Создавать темы 28-Фев-2014 18:12

[Профиль]  [ЛС] 

NexuS

Стаж: 5 лет 10 месяцев

Сообщений: 8

зачем данный фильм прилепили наверх, если его озвучка одноголосная. Я думал, важными делают темы лицензионных фильмов, ну или хотяб с нормальным переводом=) Или я ошибался?)

Создавать темы 02-Мар-2014 12:15

[Профиль]  [ЛС] 
Показать сообщения:    
Ответить на тему

Текущее время: 16-Дек 12:17

Часовой пояс: UTC + 5



Вы не можете начинать темы
Вы не можете отвечать на сообщения
Вы не можете редактировать свои сообщения
Вы не можете удалять свои сообщения
Вы не можете голосовать в опросах
Вы не можете прикреплять файлы к сообщениям
Вы не можете скачивать файлы