Я, Франкенштейн / I, Frankenstein (Стюарт Битти / Stuart Beattie) [2014, США, Австралия, Фэнтези, боевик, приключения, DVDRip] [Лицензия]

Страницы :  1, 2, 3, 4  След.

Ответить на тему
 

Suxrob89 ®

Стаж: 7 лет 1 месяц

Сообщений: 933

Симпатии: 564

- - Страна: США, Австралия / Hopscotch Features, Lakeshore Entertainment, Sidney Kimmel Entertainment
Жанр: Фэнтези, боевик, приключения
Год выпуска: 2014
Продолжительность: 01:29:14
Перевод: Дублированное [лицензия]
Cубтитры: нет-Режиссер: Стюарт Битти / Stuart Beattie-В ролях: Аарон Экхарт, Ивонн Страховски, Миранда Отто, Билл Найи, Джай Кортни, Сократис Отто, Аден Янг, Кэйтлин Стэйси, Махеш Джаду, Стив Музакис-Описание: Он — монстр. Он — двухсотлетний плод безумной фантазии своего создателя. Он — легенда. Мир, в котором он живет, населен древними горгульями и бессмертными демонами, которые сражаются за обладание человечеством. Величественные соборы скрывают огромные арсеналы, за дверьми научных лабораторий проводятся эксперименты по воскрешению мертвых. Война двух кланов могущественных существ достигает своего пика. И только он, Адам, монстр Франкенштейна, в силах ее остановить.- -Дата мировой премьеры: 22 января 2014
Дата российской премьеры: 23 января 2014, «Двадцатый Век Фокс СНГ», «A Company» 3D-Качество видео: DVDRip
Формат видео: AVI
Видео: 720x304, 1738 Kb/s, (2,35:1), 25,000 fps, 0.318 bit/pixel
Аудио: 48 kHz, AC3 Dolby Digital, 448 kbps

MediaInfo

Общее
Полное имя                               : D:\Ya.Frankenshtejn.2014.D.DVDRip.1400MB.avi
Формат                                   : AVI
Формат/Информация                        : Audio Video Interleave
Размер файла                             : 1,37 Гбайт
Продолжительность                        : 1 ч. 29 м.
Общий поток                              : 2195 Кбит/сек
Программа кодирования                    : VirtualDubMod 1.5.10.3 | (build 2550/release)
Библиотека кодирования                   : VirtualDubMod build 2550/release
Видео
Идентификатор                            : 0
Формат                                   : MPEG-4 Visual
Профиль формата                          : Advanced [email protected]
Параметр BVOP формата                    : 2
Параметр QPel формата                    : Нет
Параметр GMC формата                     : Без точки перехода
Параметр матрицы формата                 : Default (MPEG)
Идентификатор кодека                     : XVID
Идентификатор кодека/Подсказка           : XviD
Продолжительность                        : 1 ч. 29 м.
Битрейт                                  : 1738 Кбит/сек
Ширина                                   : 720 пикселей
Высота                                   : 304 пикселя
Соотношение сторон                       : 2,35:1
Частота кадров                           : 25,000 кадров/сек
Цветовое пространство                    : YUV
Субдискретизация насыщенности            : 4:2:0
Битовая глубина                          : 8 бит
Тип развёртки                            : Прогрессивная
Метод сжатия                             : С потерями
Бит/(Пиксели*Кадры)                      : 0.302
Размер потока                            : 1,03 Гбайт (75%)
Библиотека кодирования                   : XviD 73
Аудио
Идентификатор                            : 1
Формат                                   : AC-3
Формат/Информация                        : Audio Coding 3
Расширение режима                        : CM (complete main)
Параметр Endianness формата              : Big
Идентификатор кодека                     : 2000
Продолжительность                        : 1 ч. 29 м.
Вид битрейта                             : Постоянный
Битрейт                                  : 448 Кбит/сек
Каналы                                   : 6 каналов
Расположение каналов                     : Front: L C R, Side: L R, LFE
Частота                                  : 48,0 КГц
Битовая глубина                          : 16 бит
Метод сжатия                             : С потерями
Задержка видео                           : 24 мс.
Размер потока                            : 2,19 Мбайт (33%)
Выравнивание                             : Разделение по промежуткам
Продолжительность промежутка             : 40  мс. (1,01 видеокадр)
Время предзагрузки промежутка            : 500  мс.

Скриншоты




Создавать темы 01-Мар-2014 05:43

[Профиль]  [ЛС] 

ravshan

Стаж: 4 года 4 месяца

Сообщений: 9

kak film?

Создавать темы 01-Мар-2014 13:02

[Профиль]  [ЛС] 

Aziz

Стаж: 6 лет 11 месяцев

Сообщений: 6

спасибо Сухроб... с нетепением ждал качеству...

Создавать темы 01-Мар-2014 13:19

[Профиль]  [ЛС] 

AeRoNHanD

Стаж: 4 года 11 месяцев

Сообщений: 198

Симпатии: 3

как фильм отпишитесь??

Создавать темы 01-Мар-2014 16:50

[Профиль]  [ЛС] 

knyaz31337

Стаж: 6 лет 4 месяца

Сообщений: 396

Симпатии: 20

Признаться честно, но трейлер был намного круче. Ничего особенного. Красивых сцен драк нет, графика так себе, сюжет, лучше промолчу... Собственно рейтинг почти говорит сам за себя, но я бы его понизил где-то до 3,5-4.

Создавать темы 01-Мар-2014 17:14

[Профиль]  [ЛС] 

рыжий

Стаж: 7 лет 4 месяца

Сообщений: 169

Симпатии: 130

Отвратительный фильм. Не стоит того времени, что было на него потрачено. Да и визуализация слабовата. Правильно сказали, что трейлер был круче

Создавать темы 01-Мар-2014 17:46

[Профиль]  [ЛС] 

hard92

Стаж: 4 года 10 месяцев

Сообщений: 60

тп фильм

Создавать темы 02-Мар-2014 11:56

[Профиль]  [ЛС] 

icefrog_ss

Стаж: 5 лет 1 месяц

Сообщений: 69

Симпатии: 3

Спасибо!!!

Создавать темы 02-Мар-2014 12:15

[Профиль]  [ЛС] 

Xixidok

Стаж: 3 года 7 месяцев

Сообщений: 181

Симпатии: 27

Kак раз на выходные посмотреть! Suxrob89 спасибо!

Создавать темы 02-Мар-2014 13:10

[Профиль]  [ЛС] 

firestarter_xl

Стаж: 5 лет

Сообщений: 50

Симпатии: 2

фильм такое Г

Создавать темы 02-Мар-2014 13:13

[Профиль]  [ЛС] 

Jnec

Стаж: 4 года 11 месяцев

Сообщений: 165

Спасибо.

Создавать темы 02-Мар-2014 14:11

[Профиль]  [ЛС] 

TIM_MITCH

Стаж: 5 лет 5 месяцев

Сообщений: 16

Пред история немного скудная а так фильм неплох на фоне многих остальных

Создавать темы 02-Мар-2014 21:25

[Профиль]  [ЛС] 

WierdDude

Стаж: 4 года 3 месяца

Сообщений: 12

Симпатии: 2

Спасибо за реализ. И всем спасибо за скорость:-)

Создавать темы 02-Мар-2014 22:08

[Профиль]  [ЛС] 

Gulshexra

Стаж: 3 года 7 месяцев

Сообщений: 8

Симпатии: 1

спасибо

Создавать темы 02-Мар-2014 23:02

[Профиль]  [ЛС] 

228

Стаж: 4 года 11 месяцев

Сообщений: 55

Симпатии: 2

Ребят дайте скорости пожалуйста.

Создавать темы 03-Мар-2014 11:06

[Профиль]  [ЛС] 
Показать сообщения:    
Ответить на тему

Текущее время: 24-Сен 19:09

Часовой пояс: UTC + 5



Вы не можете начинать темы
Вы не можете отвечать на сообщения
Вы не можете редактировать свои сообщения
Вы не можете удалять свои сообщения
Вы не можете голосовать в опросах
Вы не можете прикреплять файлы к сообщениям
Вы не можете скачивать файлы