Я, снова я и мама / Les garçons et Guillaume, à table! (Гийом Гальенн) [2013 г., комедия, HDRip] [Лицензия]

Ответить на тему
 

Каротажник ®

Стаж: 3 года 10 месяцев

Сообщений: 195

Симпатии: 211

Я, снова я и мама / Les garçons et Guillaume, à table!

Год выпуска: 2013
Страна: Франция, Бельгия
Жанр: комедия
Продолжительность: 01:26:32
Перевод: Профессиональный (многоголосый) [Лицензия]-Режиссёр: Гийом Гальенн-В ролях: Гийом Гальенн, Андре Маркон, Франсуаза Фабиан, Нану Гарсия, Дайан Крюгер, Реда Катеб, Гёц Отто, Бриджитт Катийон, Кэрол Бреннер, Чарли Энсон-
Гийом настолько боготворит свою мамочку, что всячески подражает ее манерам и поведению. Странные интересы, необъяснимые действия заставляют окружающих думать, что все не так просто в жизни молодого человека.-Рейтинг:
 -
Файл:
Качество: HDRip
Формат: AVI
Видео: XviD, 1803 Кбит/с, 720x304
Аудио: AC3, 6 ch, 448 Кбит/с

Media Info

General
Complete name : E:\Kino\russ\Ja.snova.ja.i.mama.2013.P.HDRip.1400Mb.avi
Format : AVI
Format/Info : Audio Video Interleave
File size : 1.37 GiB
Duration : 1h 26mn
Overall bit rate : 2 261 Kbps
Writing application : VirtualDubMod 1.5.10.3 | www.virtualdub-fr.org || (build 2550/release)
Writing library : VirtualDubMod build 2550/release
Video
ID : 0
Format : MPEG-4 Visual
Format profile : Advanced [email protected]
Format settings, BVOP : 1
Format settings, QPel : No
Format settings, GMC : No warppoints
Format settings, Matrix : Custom
Codec ID : XVID
Codec ID/Hint : XviD
Duration : 1h 26mn
Bit rate : 1 803 Kbps
Width : 720 pixels
Height : 304 pixels
Display aspect ratio : 2.35:1
Frame rate : 24.000 fps
Color space : YUV
Chroma subsampling : 4:2:0
Bit depth : 8 bits
Scan type : Progressive
Compression mode : Lossy
Bits/(Pixel*Frame) : 0.343
Stream size : 1.09 GiB (80%)
Writing library : XviD 1.2.1 (UTC 2008-12-04)
Audio
ID : 1
Format : AC-3
Format/Info : Audio Coding 3
Mode extension : CM (complete main)
Format settings, Endianness : Big
Codec ID : 2000
Duration : 1h 26mn
Bit rate mode : Constant
Bit rate : 448 Kbps
Channel(s) : 6 channels
Channel positions : Front: L C R, Side: L R, LFE
Sampling rate : 48.0 KHz
Bit depth : 16 bits
Compression mode : Lossy
Stream size : 277 MiB (20%)
Alignment : Split accross interleaves
Interleave, duration : 42 ms (1.00 video frame)
Interleave, preload duration : 500 ms

Скриншоты




Создавать темы 01-Мар-2014 10:53

[Профиль]  [ЛС] 

Kit

Стаж: 5 лет

Сообщений: 153

Симпатии: 9

автору спасибо за релиз, но фильм полная чушь!.

Создавать темы 01-Мар-2014 12:09

[Профиль]  [ЛС] 

sarvar-aka

Стаж: 4 года 10 месяцев

Сообщений: 34

Симпатии: 1

787060автору спасибо за релиз, но фильм полная чушь!.
Эта "полная чушь" получила пять "Сезаров" у себя на родине (французский "Оскар" если кто не знает), в том числе и в номинации "Лучший фильм года".

Создавать темы 02-Мар-2014 22:34

[Профиль]  [ЛС] 

Kit

Стаж: 5 лет

Сообщений: 153

Симпатии: 9

sarvar-aka, я тоже гуглить умею, а Вы возьмите и посмотрите его... :)) я высказал своё НЕ навязанное мнение какими-то наградами и номинациями, премии которые вполне возможно выигрываются в карты, а не за худ.талант выдаются....
Вы посмотрите рейтинг фильма(конечно если Вы понимаете, что именно в нём указанно и как он получился таким)
так что спорить без полезно, сколько людей - столько мнений!.. :cc:

Создавать темы 02-Мар-2014 23:14

[Профиль]  [ЛС] 

VAIO

Стаж: 5 лет 7 месяцев

Сообщений: 1568

Симпатии: 1399

Соглашусь с Kit, фильм не очень, но конечно о вкусах не спорят.

Создавать темы 18-Мар-2014 16:52

[Профиль]  [ЛС] 
Показать сообщения:    
Ответить на тему

Текущее время: 19-Авг 16:25

Часовой пояс: UTC + 5



Вы не можете начинать темы
Вы не можете отвечать на сообщения
Вы не можете редактировать свои сообщения
Вы не можете удалять свои сообщения
Вы не можете голосовать в опросах
Вы не можете прикреплять файлы к сообщениям
Вы не можете скачивать файлы