Starперцы / Last Vegas (Джон Тёртелтауб / Jon Turteltaub) [2013, США, Комедия, Драма, BDRip 720p] [чистый звук]

Ответить на тему
 

yusuf.0088 ®

Стаж: 4 года 1 месяц

Сообщений: 116

Симпатии: 69

Starперцы / Last Vegas
«Мы - легенда»
- Год выпуска: 2013
Страна: США
Жанр: Комедия, драма
Продолжительность: 01:45:00
Перевод: Дублированный [чистый звук] - официальный кинотеатральный дубляж
Оригинальная дорожка: нет
Cубтитры: нет
Режиссер: Джон Тёртелтауб / Jon Turteltaub
В ролях: Майкл Дуглас, Роберт Де Ниро, Морган Фримен, Кевин Клайн, Мэри Стинберген, Джерри Феррара, Романи Малко, Роджер Барт, Джоанна Глисон, Майкл Или, Бри Блэр
Описание: Билли, Пэдди, Арчи и Сэм дружат больше полувека. И когда убежденный холостяк Билли наконец-то делает предложение своей юной подружке, великолепная четверка отправляется в Лас-Вегас, чтобы скинуть с себя груз прожитого и зажечь как в последний раз. Великовозрастные гуляки и не подозревают, как за десятилетия эволюционировал Город Грехов…- 
-Качество: BDRip 720p
Формат: MKV
Аудио кодек: AC3
Видео: MPEG-4 AVC, 6800 Кбит/с, 1280x534, 23,976 кадра/сек
Аудио: Русский AC3, 2 ch, 384 Кбит/с, 48 КГц |Дубляж|
Чаптеры как на Blu-ray

MediaInfo

Формат : Matroska
Версия формата : Version 4 / Version 2
Размер файла : 5,27 Гбайт
Продолжительность : 1 ч. 44 м.
Общий поток : 7184 Кбит/сек
Название фильма : StarPercy.2013.BDRip.720p @ Yusuf
Дата кодирования : UTC 2014-02-20 07:08:45
Программа кодирования : mkvmerge v6.0.0 ('Coming Up For Air') built on Jan 20 2013 09:52:00
Библиотека кодирования : libebml v1.3.0 + libmatroska v1.4.0
Видео
Идентификатор : 1
Формат : AVC
Формат/Информация : Advanced Video Codec
Профиль формата : [email protected]
Параметр CABAC формата : Да
Параметр ReFrames формата : 12 кадров
Идентификатор кодека : V_MPEG4/ISO/AVC
Продолжительность : 1 ч. 44 м.
Битрейт : 6800 Кбит/сек
Ширина : 1280 пикселей
Высота : 534 пикселя
Соотношение сторон : 2,40:1
Режим частоты кадров : Постоянный
Частота кадров : 23,976 кадра/сек
Цветовое пространство : YUV
Субдискретизация насыщенности : 4:2:0
Битовая глубина : 8 бит
Тип развёртки : Прогрессивная
Бит/(Пиксели*Кадры) : 0.415
Размер потока : 4,88 Гбайт (93%)
Заголовок : StarPercy.2013.BDRip.720p @ Yusuf
Библиотека кодирования : x264 core 140 r2377+40 929f149 tMod [[email protected]:2:0 X86_64]
Настройки программы : cabac=1 / ref=12 / deblock=1:-3:-3 / analyse=0x3:0x113 / me=umh / subme=10 / psy=1 / fade_compensate=0.00 / psy_rd=1.10:0.00 / mixed_ref=1 / me_range=32 / chroma_me=1 / trellis=2 / 8x8dct=1 / cqm=0 / deadzone=21,11 / fast_pskip=0 / chroma_qp_offset=-2 / threads=18 / lookahead_threads=3 / sliced_threads=0 / nr=0 / decimate=0 / interlaced=0 / bluray_compat=0 / constrained_intra=0 / fgo=0 / bframes=8 / b_pyramid=2 / b_adapt=2 / b_bias=0 / direct=3 / weightb=1 / open_gop=0 / weightp=2 / keyint=240 / keyint_min=24 / scenecut=40 / intra_refresh=0 / rc=2pass / mbtree=0 / bitrate=6800 / ratetol=1.0 / qcomp=0.70 / qpmin=0:0:0 / qpmax=69:69:69 / qpstep=4 / cplxblur=20.0 / qblur=0.5 / ip_ratio=1.10 / pb_ratio=1.10 / aq=4:0.80 / aq-sensitivity=10.00 / aq-factor=1.00:1.00:1.00 / aq2=0 / aq3=0
Язык : English
Default : Да
Forced : Нет
Аудио
Идентификатор : 2
Формат : AC-3
Формат/Информация : Audio Coding 3
Расширение режима : CM (complete main)
Параметр Endianness формата : Big
Идентификатор кодека : A_AC3
Продолжительность : 1 ч. 44 м.
Вид битрейта : Постоянный
Битрейт : 384 Кбит/сек
Каналы : 2 канала
Расположение каналов : Front: L R
Частота : 48,0 КГц
Битовая глубина : 16 бит
Метод сжатия : С потерями
Размер потока : 288 Мбайт (5%)
Язык : Russian
Default : Да
Forced : Нет
Меню
00:00:00.000 : en:(01)00:00:00:000
00:03:03.391 : en:(02)00:03:03:391
00:10:25.458 : en:(03)00:10:25:458
00:20:38.862 : en:(04)00:20:38:862
00:29:31.102 : en:(05)00:29:31:102
00:41:30.154 : en:(06)00:41:30:154
00:49:40.060 : en:(07)00:49:40:060
00:57:18.977 : en:(08)00:57:18:977
01:05:28.633 : en:(09)01:05:28:633
01:10:08.078 : en:(10)01:10:08:078
01:14:33.302 : en:(11)01:14:33:302
01:18:06.682 : en:(12)01:18:06:682
01:21:23.378 : en:(13)01:21:23:378
01:27:03.134 : en:(14)01:27:03:134
01:34:43.386 : en:(15)01:34:43:386
01:40:51.045 : en:(16)01:40:51:045

Скриншоты

Создавать темы 02-Мар-2014 14:33

[Профиль]  [ЛС] 
Показать сообщения:    
Ответить на тему

Текущее время: 22-Ноя 14:29

Часовой пояс: UTC + 5



Вы не можете начинать темы
Вы не можете отвечать на сообщения
Вы не можете редактировать свои сообщения
Вы не можете удалять свои сообщения
Вы не можете голосовать в опросах
Вы не можете прикреплять файлы к сообщениям
Вы не можете скачивать файлы