Прекрасные создания / Beautiful Creatures (Ричард ЛаГравенес / Richard LaGravenese) [2013, США, Фэнтези, драма, мелодрама, BDRip][Лицензия]

Ответить на тему
 

Suxrob89 ®

Стаж: 7 лет 3 месяца

Сообщений: 933

Симпатии: 564

-Прекрасные создания / Beautiful Creatures-«Раскроются тёмные тайны»- Год выпуска: 2013
Выпущено: США / Warner Bros. Entertainment
Жанр: фэнтези, драма, мелодрама
Продолжительность: 02:03:45
Перевод: Профессиональный (полное дублирование) |Лицензия|
Субтитры: нет-Режиссер: Ричард ЛаГравенес / Richard LaGravenese-В ролях: Олден Эйренрайк (Ethan Wate), Элис Энглерт (Lena Duchannes), Джереми Айронс (Macon Ravenwood), Виола Дэвис (Amma), Эмми Россам (Ridley Duchannes), Томас Манн (Link), Эмма Томпсон (Mrs. Lincoln /Sarafine), Айлин Эткинс (Gramma), Марго Мартиндейл (Aunt Del), Зои Дойч (Emily Asher)-Описание: Лена Дюкейн отличается от всех, кого когда-либо видел маленький южный город Гатлин, она борется с собой, пытаясь усмирить свою силу и проклятие, веками преследовавшее ее семью. Но даже в разросшихся садах, в мрачных болотах и на разрушенных могильниках позабытого Юга секрет не будет жить вечно.
Итана Уэйта, считающего дни до своего бегства из Гатлина, преследуют сны о прекрасной девушке, которую он никогда не встречал. Когда Лена приезжает жить в дом на самой старой и самой жуткой из всех плантаций города, Итан безоговорочно влюбляется в нее и целенаправленно старается раскрыть секрет их удивительной связи.- -Качество: BDRip [Beautiful.Creatures.2013.1080p.BluRay.AVC.DTS-HD.MA.5.1-PublicHD]
Формат: AVI
Видео: 720x304 (2.37:1), 23.976 fps, XviD build 73 ~1231 kbps avg, 0.23 bit/pixel
Аудио: 48 kHz, AC3 Dolby Digital, 3/2 (L,C,R,l,r) + LFE ch, ~448.00 kbps avg

MediaInfo

General
Complete name                            : D:\Prekrasnye_sozdaniya_2013_BDRip.avi
Format                                   : AVI
Format/Info                              : Audio Video Interleave
File size                                : 1.46 GiB
Duration                                 : 2h 3mn
Overall bit rate                         : 1 689 Kbps
Writing application                      : VirtualDubMod 1.5.10.3 | www.virtualdub-fr.org || (build 2550/release)
Writing library                          : VirtualDubMod build 2550/release
Video
ID                                       : 0
Format                                   : MPEG-4 Visual
Format profile                           : Advanced [email protected]
Format settings, BVOP                    : 1
Format settings, QPel                    : No
Format settings, GMC                     : No warppoints
Format settings, Matrix                  : Custom
Codec ID                                 : XVID
Codec ID/Hint                            : XviD
Duration                                 : 2h 3mn
Bit rate                                 : 1 232 Kbps
Width                                    : 720 pixels
Height                                   : 304 pixels
Display aspect ratio                     : 2.35:1
Frame rate                               : 23.976 fps
Color space                              : YUV
Chroma subsampling                       : 4:2:0
Bit depth                                : 8 bits
Scan type                                : Progressive
Compression mode                         : Lossy
Bits/(Pixel*Frame)                       : 0.235
Stream size                              : 1.06 GiB (73%)
Writing library                          : XviD 73
Audio
ID                                       : 1
Format                                   : AC-3
Format/Info                              : Audio Coding 3
Mode extension                           : CM (complete main)
Format settings, Endianness              : Big
Codec ID                                 : 2000
Duration                                 : 2h 3mn
Bit rate mode                            : Constant
Bit rate                                 : 448 Kbps
Channel(s)                               : 6 channels
Channel positions                        : Front: L C R, Side: L R, LFE
Sampling rate                            : 48.0 KHz
Bit depth                                : 16 bits
Compression mode                         : Lossy
Stream size                              : 397 MiB (27%)
Alignment                                : Split accross interleaves
Interleave, duration                     : 42 ms (1.00

Скриншот c названием фильма

Скриншоты



Создавать темы 03-Мар-2014 05:47

[Профиль]  [ЛС] 

Rasul

Стаж: 5 лет 9 месяцев

Сообщений: 100

Симпатии: 6

ОЧЕНЬ ДОЛГО ЖДАЛ......

Создавать темы 04-Мар-2014 19:20

[Профиль]  [ЛС] 
Показать сообщения:    
Ответить на тему

Текущее время: 19-Ноя 09:40

Часовой пояс: UTC + 5



Вы не можете начинать темы
Вы не можете отвечать на сообщения
Вы не можете редактировать свои сообщения
Вы не можете удалять свои сообщения
Вы не можете голосовать в опросах
Вы не можете прикреплять файлы к сообщениям
Вы не можете скачивать файлы