9 месяцев строгого режима / 9 mois ferme (Альбер Дюпонтель / Albert Dupontel) [2013, Франция, Комедия, BDRip] [Лицензия]

Ответить на тему
 

Suxrob89 ®

Стаж: 7 лет 2 месяца

Сообщений: 933

Симпатии: 564

-9 месяцев строгого режима / 9 mois ferme- Страна: Франция
Жанр: Комедия
Год выпуска: 2013
Продолжительность: 01:22:02
Перевод: Профессиональный (дублированный)[Лицензия]
Cубтитры: русский, английский
Формат субтитров: SoftSub (srt)
Оригинальная аудиодорожка: нет-Режиссер: Альбер Дюпонтель / Albert Dupontel-В ролях: Альбер Дюпонтель, Сандрин Киберлэн, Николя Марье, Филипп Юшан, Филипп Дюкен, Були Ланнерс, Кристиан Эк, Жиль Гастон-Дрейфус, Мишель Фо, Лорэ Кэлами-Описание: Ариана — судья, трудоголик и блондинка с высокими моральными принципами. Никаких мужчин. Никакой семьи. Никаких детей. Только работа, только закон. Кошмарная новость — и конец идиллии — она беременна! «Этого не может быть!» — кричит Ариана, начиная расследование самого невероятного дела в своей жизни! Распутать его отчаянно мешают собственные принципы и знаменитый вор. Но нарушить закон Ариане все же придется. И лучше бы ей не знать, что же на самом деле произошло!- -Дополнительно: Русские субтитры сняты с лицензионного диска DVD5 R5. Все релизы, выставленные до этого, к лицензии отношения не имеют.-Качество: BDRip / 9.Mois.Ferme.2013.Blu-Ray.REMUX.1080p + DVD5 R5
Формат видео: AVI
Видео: 720x304 (2.35:1), 23.976 fps, XViD, ~2085 kbps avg, 0.397 bit/pix
Аудио: Russian: 48 kHz, Dolby AC3, 6 ch, 448 kbps Const

MediaInfo

Общее
Полное имя : 9.mesyatsev.strogogo.rejima.2013.D.BDRip_[New-Team]_by_avproh.avi
Формат : AVI
Формат/Информация : Audio Video Interleave
Размер файла : 1,46 Гбайт
Продолжительность : 1 ч. 22 м.
Общий поток : 2542 Кбит/сек
Программа кодирования : VirtualDubModRus 1.5.10.2 (build 2542/release)
Библиотека кодирования : VirtualDubMod build 2542/release
Видео
Идентификатор : 0
Формат : MPEG-4 Visual
Профиль формата : Advanced [email protected]
Параметр BVOP формата : 1
Параметр QPel формата : Нет
Параметр GMC формата : Без точки перехода
Параметр матрицы формата : Выборочная
Идентификатор кодека : XVID
Идентификатор кодека/Подсказка : XviD
Продолжительность : 1 ч. 22 м.
Битрейт : 2085 Кбит/сек
Ширина : 720 пикселей
Высота : 304 пикселя
Соотношение сторон : 2,35:1
Частота кадров : 23,976 кадра/сек
Цветовое пространство : YUV
Субдискретизация насыщенности : 4:2:0
Битовая глубина : 8 бит
Тип развёртки : Прогрессивная
Метод сжатия : С потерями
Бит/(Пиксели*Кадры) : 0.397
Размер потока : 1,19 Гбайт (82%)
Библиотека кодирования : XviD 73
Аудио
Идентификатор : 1
Формат : AC-3
Формат/Информация : Audio Coding 3
Расширение режима : CM (complete main)
Параметр Endianness формата : Big
Идентификатор кодека : 2000
Продолжительность : 1 ч. 21 м.
Вид битрейта : Постоянный
Битрейт : 448 Кбит/сек
Каналы : 6 каналов
Расположение каналов : Front: L C R, Side: L R, LFE
Частота : 48,0 КГц
Битовая глубина : 16 бит
Метод сжатия : С потерями
Размер потока : 263 Мбайт (18%)
Выравнивание : Разделение по промежуткам
Продолжительность промежутка : 42 мс. (1,00 видеокадр)
Время предзагрузки промежутка : 500 мс.

Скриншот c названием фильма

Скриншоты








Последний раз редактировалось: Suxrob89 (2014-04-10 07:22), всего редактировалось 2 раз(а)

Создавать темы 03-Мар-2014 05:59

[Профиль]  [ЛС] 

titton

Стаж: 7 лет 3 месяца

Сообщений: 69

Симпатии: 2

ta ta ta плиз дайте газу

Создавать темы 03-Мар-2014 12:49

[Профиль]  [ЛС] 

arslan-mukatov

Стаж: 5 лет 8 месяцев

Сообщений: 74

как фильм, стоит смотреть?

Создавать темы 04-Мар-2014 19:52

[Профиль]  [ЛС] 

jahong1r

Стаж: 5 лет 8 месяцев

Сообщений: 4

фильм супер , советую

Создавать темы 31-Мар-2014 17:42

[Профиль]  [ЛС] 

outoforder

Стаж: 4 года 11 месяцев

Сообщений: 812

Симпатии: 172

Слабенький такой фильмец. Фееричности и искрометности его юмарца сам Евгений Ваганыч позавидовал бы. С такими фильмецами никаких "аншлагов" с дубовицкой не надо. mm bl

Создавать темы 01-Апр-2014 19:38

[Профиль]  [ЛС] 

edifier

Стаж: 4 года 7 месяцев

Сообщений: 23

Симпатии: 1

Страна: Франция
Жанр: Комедия
разве уже не ясно?

Создавать темы 08-Апр-2014 19:59

[Профиль]  [ЛС] 

samsunger

Стаж: 5 лет 5 месяцев

Сообщений: 332

Симпатии: 19

Согласен, фильм слабоват. Думал в конце фильма будет поинтересней развязка. А фильм заканчивается тем, что она защитила его в суде, родила ребенка и ее понизили в должности. Да, фильму оценка 3. Смотреть не стоит.

Создавать темы 06-Июн-2014 22:13

[Профиль]  [ЛС] 
Показать сообщения:    
Ответить на тему

Текущее время: 24-Окт 07:18

Часовой пояс: UTC + 5



Вы не можете начинать темы
Вы не можете отвечать на сообщения
Вы не можете редактировать свои сообщения
Вы не можете удалять свои сообщения
Вы не можете голосовать в опросах
Вы не можете прикреплять файлы к сообщениям
Вы не можете скачивать файлы