Викинги / Vikings / Полный 2ой сезон / Серии: 1-10 из 10 (Киаран Доннелли, Йохан Ренк, Кен Джиротти) [2014, Боевик, драма, военный, история, WEB-DLRip] MVO (NewStudio) + MVO (AlexFilm) + MVO (B&K) + Original

Страницы :  1, 2, 3, 4  След.

Ответить на тему
 

emilsky ®

Стаж: 7 лет 1 месяц

Сообщений: 2237

Симпатии: 610


Викинги / Vikings
2 сезон, 1-10 серии
Год выпуска: 2014
Страна: Ирландия, Канада
Жанр: боевик, драма, военный, история
Продолжительность: 10х ~45 мин
Перевод: профессиональный многоголосый закадровый (NewStudio)
Перевод: профессиональный многоголосый закадровый (AlexFilm)
Перевод: профессиональный многоголосый закадровый (B&K)
Субтитры: нет
Режиссеры: Йохан Ренк, Киаран Доннелли, Кен Джиротти-В ролях: Трэвис Фиммел, Клайв Стэнден, Гэбриел Бирн, Кэтрин Уинник, Джессалин Гилсиг, Джордж Благден, Густаф Скарсгард, Торбьорн Харр, Владимир Кулих, Донал Лог, Айван Кэй, Мод Хирст, Эрик Хиггинс, Герард Маккарти, Юко Ахола, Эми Де Брюн, Сэм Смит, Билл Гибсон, Кевин Мюррэй-Описание: Сериал рассказывает об отряде викингов Рагнара. Он восстал, чтобы стать королём племён викингов. Норвежская легенда гласит, что он был прямым потомком Одина, бога войны и воинов.-
  • Над проектом работали:
    Релиз:
    Перевод: weirdie
    Монтаж и сведение звука: Koss и Baggio
    Роли озвучивали:
  • Петр Иващенко (Гланц)
  • Константин Погодаев
  • Анна Тух-Релиз:
    Перевод: Ольга Галайда
    Монтаж и сведение звука: Сергей Мартынов
    Роли озвучивали:
  • Евгения Тихонова
  • Александр Воронов
  • Михаил Суслов
  • Александр Долгов
  • Александр Дасевич-Релиз:
    Перевод: Янина Галицкая
    Роли озвучивали:
  • Артемий Мирон
  • Сергей Корчак
  • Алексей Кузнецов
  • Елена Григорьева-Рип: emilsky- -Качество: WEB-DLRip
    Формат: AVI
    Видео кодек: XviD
    Аудио кодек: MP3
    Видео: 720x400 (1.80:1), 23.976 fps, XviD ~1310 kbps avg, 0.19 bit/pixel-Аудио NewStudio: 48 kHz, MPEG Layer 3, 2 ch, ~128.00 kbps avg
    Аудио AlexFilm: 48 kHz, MPEG Layer 3, 2 ch, ~128.00 kbps avg
    Аудио B&K: 48 kHz, MPEG Layer 3, 2 ch, ~128.00 kbps avg
    Аудио Eng: 48 kHz, MPEG Layer 3, 2 ch, ~128.00 kbps avg

    График выхода серий

    1 Brother`s War
    2 Invasion
    3 Treachery
    4 Eye For an Eye
    5 Answers in Blood
    6 Unforgiven
    7 Blood Eagle
    8 Boneless
    9 The Choice
    10 The Lord`s Prayer

    Скриншоты

    MediaInfo

    F:\Сериалы\Рипы\Викинги\Vikings.s01e01.avi
    General
    Complete name : F:\Сериалы\Рипы\Викинги\Vikings.s01e01.avi
    Format : AVI
    Format/Info : Audio Video Interleave
    File size : 584 MiB
    Duration : 44mn 15s
    Overall bit rate : 1 845 Kbps
    Movie name : Vikings 1x01 Rites of Passage @ AlexFilm
    Writing application : VirtualDubModRus 1.5.10.2 (build 2542/release)
    Writing library : VirtualDubMod build 2542/release
    Video #0
    ID : 0
    Format : MPEG-4 Visual
    Format profile : Advanced [email protected]
    Format settings, BVOP : 1
    Format settings, QPel : No
    Format settings, GMC : No warppoints
    Format settings, Matrix : Default (MPEG)
    Codec ID : XVID
    Codec ID/Hint : XviD
    Duration : 44mn 15s
    Bit rate : 1 310 Kbps
    Width : 720 pixels
    Height : 400 pixels
    Display aspect ratio : 16:9
    Frame rate : 23.976 fps
    Color space : YUV
    Chroma subsampling : 4:2:0
    Bit depth : 8 bits
    Scan type : Progressive
    Compression mode : Lossy
    Bits/(Pixel*Frame) : 0.190
    Stream size : 415 MiB (71%)
    Writing library : XviD 1.2.1 (UTC 2008-12-04)
    Audio #1
    ID : 1
    Format : MPEG Audio
    Format version : Version 1
    Format profile : Layer 3
    Codec ID : 55
    Codec ID/Hint : MP3
    Duration : 44mn 11s
    Bit rate mode : Constant
    Bit rate : 128 Kbps
    Channel(s) : 2 channels
    Sampling rate : 44.1 KHz
    Compression mode : Lossy
    Stream size : 40.5 MiB (7%)
    Alignment : Split accross interleaves
    Interleave, duration : 42 ms (1.00 video frame)
    Interleave, preload duration : 500 ms
    Audio #2
    ID : 2
    Format : MPEG Audio
    Format version : Version 1
    Format profile : Layer 3
    Mode : Joint stereo
    Mode extension : MS Stereo
    Codec ID : 55
    Codec ID/Hint : MP3
    Duration : 44mn 15s
    Bit rate mode : Constant
    Bit rate : 128 Kbps
    Channel(s) : 2 channels
    Sampling rate : 48.0 KHz
    Compression mode : Lossy
    Stream size : 40.5 MiB (7%)
    Alignment : Aligned on interleaves
    Interleave, duration : 42 ms (1.00 video frame)
    Interleave, preload duration : 504 ms
    Audio #3
    ID : 3
    Format : MPEG Audio
    Format version : Version 1
    Format profile : Layer 3
    Mode : Joint stereo
    Mode extension : MS Stereo
    Codec ID : 55
    Codec ID/Hint : MP3
    Duration : 44mn 11s
    Bit rate mode : Constant
    Bit rate : 128 Kbps
    Channel(s) : 2 channels
    Sampling rate : 48.0 KHz
    Compression mode : Lossy
    Stream size : 40.5 MiB (7%)
    Alignment : Aligned on interleaves
    Interleave, duration : 42 ms (1.00 video frame)
    Interleave, preload duration : 504 ms
    Writing library : LAME3.99
    Encoding settings : -m j -V 4 -q 2 -lowpass 17 -b 128
    Audio #4
    ID : 4
    Format : MPEG Audio
    Format version : Version 1
    Format profile : Layer 3
    Mode : Joint stereo
    Mode extension : MS Stereo
    Codec ID : 55
    Codec ID/Hint : MP3
    Duration : 44mn 15s
    Bit rate mode : Constant
    Bit rate : 128 Kbps
    Channel(s) : 2 channels
    Sampling rate : 48.0 KHz
    Compression mode : Lossy
    Stream size : 40.5 MiB (7%)
    Alignment : Aligned on interleaves
    Interleave, duration : 42 ms (1.00 video frame)
    Interleave, preload duration : 504 ms
    1ый сезон качаем тут


  • Последний раз редактировалось: emilsky (2015-02-24 10:46), всего редактировалось 22 раз(а)

    Создавать темы 04-Мар-2014 10:17

    [Профиль]  [ЛС] 

    emilsky ®

    Стаж: 7 лет 1 месяц

    Сообщений: 2237

    Симпатии: 610

    По многочисленным просьбам сделал рипчик, как и год назад!

    Создавать темы 04-Мар-2014 10:18

    [Профиль]  [ЛС] 

    RedBull

    Стаж: 6 лет 4 месяца

    Сообщений: 185

    Симпатии: 4

    забираем :)

    Создавать темы 04-Мар-2014 10:44

    [Профиль]  [ЛС] 

    flash008

    Стаж: 5 лет 7 месяцев

    Сообщений: 99

    Да прям праздник какой то ) Ганнибал , Викинги. emilsky вы лучший!

    Создавать темы 04-Мар-2014 22:19

    [Профиль]  [ЛС] 

    emilsky ®

    Стаж: 7 лет 1 месяц

    Сообщений: 2237

    Симпатии: 610

    2 серия!

    Создавать темы 11-Мар-2014 00:41

    [Профиль]  [ЛС] 

    death

    Стаж: 5 лет 5 месяцев

    Сообщений: 39

    когда 2я серия выходит?

    Создавать темы 13-Мар-2014 20:34

    [Профиль]  [ЛС] 

    emilsky ®

    Стаж: 7 лет 1 месяц

    Сообщений: 2237

    Симпатии: 610

    794707когда 2я серия выходит?
    уже 2 дня как тут!

    Создавать темы 13-Мар-2014 20:43

    [Профиль]  [ЛС] 

    emilsky ®

    Стаж: 7 лет 1 месяц

    Сообщений: 2237

    Симпатии: 610

    3 серия!

    Создавать темы 17-Мар-2014 10:06

    [Профиль]  [ЛС] 

    cartman

    Стаж: 5 лет 4 месяца

    Сообщений: 46

    Класс спасибо!

    Создавать темы 17-Мар-2014 11:41

    [Профиль]  [ЛС] 

    Арипов Мурод

    Стаж: 3 года 8 месяцев

    Сообщений: 49

    emilsky, у тебя отдача показывает 18 кб ... Чета у меня не качает,

    Создавать темы 17-Мар-2014 12:44

    [Профиль]  [ЛС] 

    death

    Стаж: 5 лет 5 месяцев

    Сообщений: 39

    клёво спасибо

    Создавать темы 17-Мар-2014 20:54

    [Профиль]  [ЛС] 

    farik9193

    Стаж: 4 года 9 месяцев

    Сообщений: 501

    Симпатии: 47

    4 серию под Наврузный спец выпуском зделали ? )))

    Создавать темы 18-Мар-2014 22:41

    [Профиль]  [ЛС] 

    shon86

    Стаж: 4 года 3 месяца

    Сообщений: 159

    Симпатии: 10

    Хороший сериал! сейчас смотрю первый сезон, второй качаю потом посматрю

    Создавать темы 20-Мар-2014 08:21

    [Профиль]  [ЛС] 

    shon86

    Стаж: 4 года 3 месяца

    Сообщений: 159

    Симпатии: 10

    emilsky, когда добавите 4 серию?

    Создавать темы 23-Мар-2014 23:52

    [Профиль]  [ЛС] 

    emilsky ®

    Стаж: 7 лет 1 месяц

    Сообщений: 2237

    Симпатии: 610

    800861emilsky, когда добавите 4 серию?
    алексы ещё не озвучили

    Создавать темы 23-Мар-2014 23:57

    [Профиль]  [ЛС] 
    Показать сообщения:    
    Ответить на тему

    Текущее время: 20-Авг 15:02

    Часовой пояс: UTC + 5



    Вы не можете начинать темы
    Вы не можете отвечать на сообщения
    Вы не можете редактировать свои сообщения
    Вы не можете удалять свои сообщения
    Вы не можете голосовать в опросах
    Вы не можете прикреплять файлы к сообщениям
    Вы не можете скачивать файлы