Grounded: Making the Last of Us | Создание игры «The Last of Us» (Jason Bertrand) [2013 г.; документальный; HD 1080p]

Ответить на тему
 

player546 ®

Стаж: 4 года 2 месяца

Сообщений: 97

Симпатии: 12

Grounded: Making the Last of Us | Создание игры «The Last of Us»
Страна: США
Год выпуска: 2013
Жанр: Документальный
Продолжительность: 01:24:50
Язык: Английский
Язык субтитров: Английский, Француский, Итальянский, Немецкий, Испанский, Португальский
Режиссер: Jason Bertrand, Matt Chandronait, Jeffrey Keith Negus, Ryan O'Donnell, Cesar Quintero
В ролях: Кристоф Балестра, Jacob Minkoff, Anthony Newman, Ricky Cambier, Benson Russell, Evan Wells, Erick Pangilinan, Philip Kovats, Travis McIntosh, Mark Botta
Описание: Загляните за кулисы, чтобы узнать об упорном развитии и уникальной философии работы в процессе создания видео игры «The Last of Us».- -Качество: HD
Формат: DivX
Видео кодек: DivX 4
Аудио кодек: MP3
Видео: 1920x1080 23.976fps 5 578 Kbps
Аудио: 44100Hz stereo 128kbps

Доп. информация:

Многие плееры не отображают субтитры. Можете записать на плейстейшн и смотреть через стандартный проигрыватель там. Или же поставить divx player

MediaInfo

General
Complete name : TheLastOfUS_GroundedTheMakingOf-HD1080.divx
Format : DivX
Format/Info : Hack of AVI
File size : 3.45 GiB
Duration : 1h 24mn
Overall bit rate : 5 830 Kbps
Video
ID : 0
Format : MPEG-4 Visual
Format profile : [email protected]
Format settings, BVOP : No
Format settings, QPel : No
Format settings, GMC : No warppoints
Format settings, Matrix : Default (H.263)
Codec ID : DIVX
Codec ID/Info : Project Mayo
Codec ID/Hint : DivX 4
Duration : 1h 24mn
Bit rate : 5 578 Kbps
Width : 1 920 pixels
Height : 1 080 pixels
Display aspect ratio : 16:9
Frame rate : 23.976 fps
Color space : YUV
Chroma subsampling : 4:2:0
Bit depth : 8 bits
Scan type : Progressive
Compression mode : Lossy
Bits/(Pixel*Frame) : 0.112
Stream size : 3.31 GiB (96%)
Title : Video
Writing library : XviD 64
Audio
ID : 1
Format : MPEG Audio
Format version : Version 1
Format profile : Layer 3
Mode : Joint stereo
Mode extension : MS Stereo
Codec ID : 55
Codec ID/Hint : MP3
Duration : 1h 24mn
Bit rate mode : Constant
Bit rate : 32.0 Kbps
Channel count : 2 channels
Sampling rate : 44.1 KHz
Compression mode : Lossy
Stream size : 121 MiB (3%)
Alignment : Aligned on interleaves
Interleave, duration : 26 ms (0.63 video frame)
Interleave, preload duration : 6 ms
Title : Audio
Writing library : LAME3.99.5
Text #1
ID : 2
Format : DivX Subtitle
Codec ID : DXSB
Codec ID/Info : Subtitle in AVI from DivX networks
Width : 1 920 pixels
Height : 1 080 pixels
Bit depth : 4 bits
Stream size : 4.34 MiB (0%)
Title : Subtitle - en-xx;02
Text #2
ID : 3
Format : DivX Subtitle
Codec ID : DXSB
Codec ID/Info : Subtitle in AVI from DivX networks
Width : 1 920 pixels
Height : 1 080 pixels
Bit depth : 4 bits
Stream size : 3.88 MiB (0%)
Title : Subtitle - fr-xx;02
Text #3
ID : 4
Format : DivX Subtitle
Codec ID : DXSB
Codec ID/Info : Subtitle in AVI from DivX networks
Width : 1 920 pixels
Height : 1 080 pixels
Bit depth : 4 bits
Stream size : 3.96 MiB (0%)
Title : Subtitle - it-xx;02
Text #4
ID : 5
Format : DivX Subtitle
Codec ID : DXSB
Codec ID/Info : Subtitle in AVI from DivX networks
Width : 1 920 pixels
Height : 1 080 pixels
Bit depth : 4 bits
Stream size : 4.02 MiB (0%)
Title : Subtitle - de-xx;02
Text #5
ID : 6
Format : DivX Subtitle
Codec ID : DXSB
Codec ID/Info : Subtitle in AVI from DivX networks
Width : 1 920 pixels
Height : 1 080 pixels
Bit depth : 4 bits
Stream size : 4.29 MiB (0%)
Title : Subtitle - es-xx;02
Text #6
ID : 7
Format : DivX Subtitle
Codec ID : DXSB
Codec ID/Info : Subtitle in AVI from DivX networks
Width : 1 920 pixels
Height : 1 080 pixels
Bit depth : 4 bits
Stream size : 3.69 MiB (0%)
Title : Subtitle - pt-xx;02

Скриншоты



Последний раз редактировалось: player546 (2014-03-04 16:11), всего редактировалось 2 раз(а)

Создавать темы 04-Мар-2014 14:51

[Профиль]  [ЛС] 

2BubbLe

Стаж: 3 года 10 месяцев

Сообщений: 167

Симпатии: 12

допишите
Формат:
Видео кодек:
Аудио кодек:
еще "kbps"в отделе видео кодек

Создавать темы 04-Мар-2014 15:03

[Профиль]  [ЛС] 

player546 ®

Стаж: 4 года 2 месяца

Сообщений: 97

Симпатии: 12

2BubbLe, Добавил. Но если честно, не вижу смысла дублировать инфу при наличии МедиаИнфо.

Создавать темы 04-Мар-2014 16:09

[Профиль]  [ЛС] 

2BubbLe

Стаж: 3 года 10 месяцев

Сообщений: 167

Симпатии: 12

player546, просто так удобней открыл сразу все есть, согласись

Создавать темы 04-Мар-2014 16:35

[Профиль]  [ЛС] 

XRTxWolf3

Стаж: 5 лет 7 месяцев

Сообщений: 128

Симпатии: 1

и когда зальют эту игру на тас-икс ?

Создавать темы 10-Мар-2014 02:30

[Профиль]  [ЛС] 

100stiks

Стаж: 4 года 8 месяцев

Сообщений: 35

Симпатии: 3

залейте игру пожалуйста кто может

Создавать темы 12-Сен-2014 15:11

[Профиль]  [ЛС] 
Показать сообщения:    
Ответить на тему

Текущее время: 18-Окт 18:14

Часовой пояс: UTC + 5



Вы не можете начинать темы
Вы не можете отвечать на сообщения
Вы не можете редактировать свои сообщения
Вы не можете удалять свои сообщения
Вы не можете голосовать в опросах
Вы не можете прикреплять файлы к сообщениям
Вы не можете скачивать файлы