Джунгли зовут! В поисках Марсупилами / Sur la piste du Marsupilami (Ален Шаба) [2012 г., комедия, приключения, HDRip]

Ответить на тему
 

SMaIL ®

Стаж: 3 года 6 месяцев

Сообщений: 740

Симпатии: 233

Джунгли зовут! В поисках Марсупилами / Sur la piste du Marsupilami- Год выпуска: 2012
Страна: Франция, Бельгия
Жанр: комедия, приключение
Продолжительность: 01:44:31
Перевод: Профессиональный (полное дублирование)-Режиссер: Ален Шаба-В ролях: Жамель Деббуз, Ален Шаба, Фред Тесто, Ламбер Вильсон, Жеральдин Накаш, Лия Кебеде, Патрик Тимси, Жак Вебер, Айсса Майга, Далип Синх-Описание: Cпасти карьеру некогда знаменитого телеведущего Дэна Джеральдо может лишь одно — сенсация. В поисках жареных фактов журналист отправляется в таинственную страну Паломбию. С помощью неутомимого местного авантюриста Паблито он выходит на след самого загадочного существа на Земле — рыжего и пушистого, сумчатого и хвостатого зверя Марсупилами. Обаятельнейшее животное каким-то непостижимым образом связано с тайной вечной молодости, и на него объявлена настоящая охота. Путешественникам придется спасти Марсупилами от безумных ученых, грозных военных, алчных браконьеров и прочих напастей, которые таят джунгли.-Качество: HDRip
Формат: AVI
Видео кодек: XviD
Аудио кодек: MPEG Audio
Видео:720x304 23.976fps 1023kbps
Аудио: MPEG Audio Layer 3 44100Hz stereo 123kbps 2 channels
 

Mediainfo

Format : AVI
Format/Info : Audio Video Interleave
File size : 867 MiB
Duration : 1h 44mn
Overall bit rate mode : Variable
Overall bit rate : 1 159 Kbps
Writing application : MEncoder Sherpya-SVN-r29355-4.5.0
Writing library : MPlayer
Video
ID : 0
Format : MPEG-4 Visual
Format profile : [email protected]
Format settings, BVOP : No
Format settings, QPel : No
Format settings, GMC : No warppoints
Format settings, Matrix : Default (H.263)
Codec ID : XVID
Codec ID/Hint : XviD
Duration : 1h 44mn
Bit rate : 1 024 Kbps
Width : 720 pixels
Height : 304 pixels
Display aspect ratio : 2.35:1
Original display aspect ratio : 2.35:1
Frame rate : 23.976 fps
Color space : YUV
Chroma subsampling : 4:2:0
Bit depth : 8 bits
Scan type : Progressive
Compression mode : Lossy
Bits/(Pixel*Frame) : 0.195
Stream size : 765 MiB (88%)
Writing library : XviD 1.2.1 (UTC 2008-12-04)
Audio
ID : 1
Format : MPEG Audio
Format version : Version 1
Format profile : Layer 3
Mode : Joint stereo
Codec ID : 55
Codec ID/Hint : MP3
Duration : 1h 44mn
Bit rate mode : Variable
Bit rate : 123 Kbps
Channel(s) : 2 channels
Sampling rate : 44.1 KHz
Compression mode : Lossy
Stream size : 92.3 MiB (11%)
Alignment : Aligned on interleaves
Interleave, duration : 26 ms (0.63 video frame)
Interleave, preload duration : 134 ms
Writing library : LAME3.98

Скриншоты



Последний раз редактировалось: SMaIL (2014-03-28 18:23), всего редактировалось 6 раз(а)

Создавать темы 04-Мар-2014 18:16

[Профиль]  [ЛС] 

victor0778

Стаж: 6 лет 6 месяцев

Сообщений: 1670

Симпатии: 142

http://tas-ix.net/viewtopic.php?p=37443#37443

Создавать темы 04-Мар-2014 22:04

[Профиль]  [ЛС] 
Показать сообщения:    
Ответить на тему

Текущее время: 21-Авг 20:38

Часовой пояс: UTC + 5



Вы не можете начинать темы
Вы не можете отвечать на сообщения
Вы не можете редактировать свои сообщения
Вы не можете удалять свои сообщения
Вы не можете голосовать в опросах
Вы не можете прикреплять файлы к сообщениям
Вы не можете скачивать файлы