Холодное сердце / Frozen (Крис Бак, Дженнифер Ли) [2013, США, мультфильм, мюзикл, фэнтези, комедия, приключения, BDRip 720p] Dub [чистый звук]

Ответить на тему
 

yusuf.0088 ®

Стаж: 4 года 2 месяца

Сообщений: 116

Симпатии: 69

Холодное сердце / Frozen-- Год выпуска: 2013
Страна: США
Жанр: мультфильм, мюзикл, фэнтези, комедия, мелодрама, приключения
Продолжительность: 01:42:13
Перевод: Профессиональный (дублированный)[чистый звук]
Оригинальная аудиодорожка: нет
Cубтитры: нет--Режиссер: Крис Бак, Дженнифер Ли / Chris Buck, Jennifer Lee--В ролях: Кристен Белл, Идина Мензел, Джонатан Грофф, Джош Гад, Сантино Фонтана, Алан Тьюдик, Киаран Хайндс, Крис Уильямс, Стивен Дж. Андерсон, Майа Уилсон--Описание:
Когда древнее предсказание сбывается, и королевство погружается в объятия вечной зимы, трое бесстрашных героев — принцесса Анна, отважный Кристофф и его верный олень Свен — отправляются в горы, чтобы найти сестру Анны, Эльзу, которая может снять со страны леденящее заклятие. По пути их ждет множество увлекательных сюрпризов и захватывающих приключений: встреча с мистическими троллями, знакомство с очаровательным снеговиком по имени Олаф, горные вершины покруче Эвереста и магия в каждой снежинке. Анне и Кристоффу предстоит сплотиться и противостоять могучей стихии, чтобы спасти королевство и тех, кто им дорог…-- --"Оскар" за "Лучший анимационный фильм" --Качество: BDRip 720p
Контейнер: MKV
Аудио кодек: AC3
Видео: MPEG-4 AVC / High Profile 4.1 / 1280x574 / 23.976 fps / 3200 kbps
Аудио 1: Русский / DTS 2ch / 48 KHz / 1509 kbps |Дубляж|

MediaInfo

Формат : Matroska
Версия формата : Version 4 / Version 2
Размер файла : 3,36 Гбайт
Продолжительность : 1 ч. 42 м.
Общий поток : 4712 Кбит/сек
Название фильма : Frozen.2013.BDRip.720p.Yusuf
Дата кодирования : UTC 2014-03-03 18:04:32
Программа кодирования : mkvmerge v6.0.0 ('Coming Up For Air') built on Jan 20 2013 09:52:00
Библиотека кодирования : libebml v1.3.0 + libmatroska v1.4.0
Видео
Идентификатор : 1
Формат : AVC
Формат/Информация : Advanced Video Codec
Профиль формата : [email protected]
Параметр CABAC формата : Да
Параметр ReFrames формата : 10 кадров
Идентификатор кодека : V_MPEG4/ISO/AVC
Продолжительность : 1 ч. 42 м.
Битрейт : 3200 Кбит/сек
Ширина : 1280 пикселей
Высота : 574 пикселя
Соотношение сторон : 2,25:1
Режим частоты кадров : Постоянный
Частота кадров : 23,976 кадра/сек
Цветовое пространство : YUV
Субдискретизация насыщенности : 4:2:0
Битовая глубина : 8 бит
Тип развёртки : Прогрессивная
Бит/(Пиксели*Кадры) : 0.182
Размер потока : 2,22 Гбайт (66%)
Заголовок : Frozen.2013.BDRip.720p.Yusuf
Библиотека кодирования : x264 core 124 r2197 69a0443
Настройки программы : cabac=1 / ref=10 / deblock=1:-1:-1 / analyse=0x3:0x113 / me=umh / subme=11 / psy=1 / psy_rd=1.00:0.00 / mixed_ref=1 / me_range=32 / chroma_me=1 / trellis=2 / 8x8dct=1 / cqm=0 / deadzone=21,11 / fast_pskip=0 / chroma_qp_offset=-2 / threads=18 / sliced_threads=0 / nr=0 / decimate=1 / interlaced=0 / bluray_compat=0 / constrained_intra=0 / bframes=7 / b_pyramid=2 / b_adapt=2 / b_bias=0 / direct=3 / weightb=1 / open_gop=0 / weightp=2 / keyint=240 / keyint_min=24 / scenecut=40 / intra_refresh=0 / rc=2pass / mbtree=0 / bitrate=3200 / ratetol=1.0 / qcomp=0.60 / qpmin=0 / qpmax=69 / qpstep=5 / cplxblur=20.0 / qblur=0.5 / ip_ratio=1.40 / pb_ratio=1.30 / aq=2:0.80
Язык : English
Default : Да
Forced : Нет
Аудио
Идентификатор : 2
Формат : DTS
Формат/Информация : Digital Theater Systems
Режим : 16
Параметр Endianness формата : Big
Идентификатор кодека : A_DTS
Продолжительность : 1 ч. 42 м.
Вид битрейта : Постоянный
Битрейт : 1509 Кбит/сек
Каналы : 2 канала
Расположение каналов : Front: L R
Частота : 48,0 КГц
Битовая глубина : 16 бит
Метод сжатия : С потерями
Размер потока : 1,08 Гбайт (32%)
Заголовок : Dub
Язык : Russian
Default : Да
Forced : Нет

Screenshots

Создавать темы 05-Мар-2014 10:20

[Профиль]  [ЛС] 

dualblos

Стаж: 5 лет 7 месяцев

Сообщений: 89

Симпатии: 4

Ребята дайте чуть-чуть скорости вас тут много а скорости ну хоть оторви

Создавать темы 14-Сен-2014 09:34

[Профиль]  [ЛС] 

Бахытберген

Стаж: 4 года 7 месяцев

Сообщений: 66

Симпатии: 18

дайте скоррости плс

Создавать темы 26-Окт-2014 14:56

[Профиль]  [ЛС] 

ilya ganyushin

Стаж: 5 лет 10 месяцев

Сообщений: 19

Симпатии: 2

пожалуйста дате скорости

Создавать темы 14-Дек-2015 17:39

[Профиль]  [ЛС] 
Показать сообщения:    
Ответить на тему

Текущее время: 15-Дек 09:42

Часовой пояс: UTC + 5



Вы не можете начинать темы
Вы не можете отвечать на сообщения
Вы не можете редактировать свои сообщения
Вы не можете удалять свои сообщения
Вы не можете голосовать в опросах
Вы не можете прикреплять файлы к сообщениям
Вы не можете скачивать файлы