Инструкции не прилагаются / No se Aceptan Devoluciones (Эухенио Дербес) [2013, драма, комедия, HDRip]

Ответить на тему
 

Каротажник ®

Стаж: 4 года 1 месяц

Сообщений: 195

Симпатии: 211

Инструкции не прилагаются / No se Aceptan Devoluciones

Год выпуска: 2013
Страна: Мексика
Жанр: драма, комедия
Продолжительность: 02:01:57
Перевод: Любительский одноголосный - Doctor Joker-Режиссёр: Эухенио Дербес
В ролях: Andrés Vázquez, Уго Стиглиц, Эухенио Дербес, Leia Freitas, Ángela Moreno, Гилда Джентиле, Нэнси Таира, Джессика Линдси, Сэмми Перез, Арселия Рамирес-
Главный герой проживает в Акапулько, по жизни, он так званый плейбой, закоренелый холостяк. Его жизнь, кардинально меняется, после того как, однажды утром, на пороге его дома ему вручили грудного младенца и сказали, что это его дочь. Для того, чтобы прокормить себя и дочь, он устраивается на опасную работу каскадером в Голливуде. Проходит шесть лет, так же неожиданно на пороге его дома, появляется мать девочки. Он начинает понимать, что очень скоро, он может потерять самое дорогое в жизни, свою дочурку..-
Качество: HDRip
Формат: AVI
Видео: 1515 Кбит/с, 720x400
Аудио: AC3, 192 Кбит/с (2 ch)

Media Info

Format : AVI
Format/Info : Audio Video Interleave
File size : 1.46 GiB
Duration : 2h 1mn
Overall bit rate : 1 716 Kbps
Writing application : VirtualDubMod 1.5.10.3 | www.virtualdub-fr.org || (build 2550/release)
Writing library : VirtualDubMod build 2550/release
Video
ID : 0
Format : MPEG-4 Visual
Format profile : Advanced [email protected]
Format settings, BVOP : 1
Format settings, QPel : No
Format settings, GMC : No warppoints
Format settings, Matrix : Custom
Codec ID : XVID
Codec ID/Hint : XviD
Duration : 2h 1mn
Bit rate : 1 515 Kbps
Width : 720 pixels
Height : 400 pixels
Display aspect ratio : 16:9
Frame rate : 23.976 fps
Color space : YUV
Chroma subsampling : 4:2:0
Bit depth : 8 bits
Scan type : Progressive
Compression mode : Lossy
Bits/(Pixel*Frame) : 0.219
Stream size : 1.29 GiB (88%)
Writing library : XviD 73
Audio
ID : 1
Format : AC-3
Format/Info : Audio Coding 3
Mode extension : CM (complete main)
Format settings, Endianness : Big
Codec ID : 2000
Duration : 2h 1mn
Bit rate mode : Constant
Bit rate : 192 Kbps
Channel(s) : 2 channels
Channel positions : Front: L R
Sampling rate : 48.0 KHz
Bit depth : 16 bits
Compression mode : Lossy
Stream size : 167 MiB (11%)
Alignment : Split accross interleaves
Interleave, duration : 42 ms (1.00 video frame)
Interleave, preload duration : 500 ms

Скриншоты


Создавать темы 05-Мар-2014 21:01

[Профиль]  [ЛС] 

13werewolf13

Стаж: 5 лет 6 месяцев

Сообщений: 19

Симпатии: 1

Фильм отличный и очень добрый. Жаль, что такие мразематери существуют в природе. А ведь они существуют((((

Создавать темы 07-Мар-2014 21:36

[Профиль]  [ЛС] 

jama97

Стаж: 5 лет 2 месяца

Сообщений: 18

Симпатии: 2

а когда будет озвучка лицензия?

Создавать темы 09-Мар-2014 23:01

[Профиль]  [ЛС] 

killer_said

Стаж: 6 лет 9 месяцев

Сообщений: 183

Симпатии: 54

золотой фильм. не смог воздержать слёзы

Создавать темы 18-Мар-2014 23:42

[Профиль]  [ЛС] 

_bekorchi_

Стаж: 7 лет 4 месяца

Сообщений: 7

Самый лучшей фильм среди всех которые здесь находиться и который в этом году я успел посмотрел... Советую всем! Спасибо за фильм!

Создавать темы 20-Мар-2014 19:19

[Профиль]  [ЛС] 

flint

Стаж: 5 лет 2 месяца

Сообщений: 18

Спасибо за фильм очень понравился!

Создавать темы 21-Мар-2014 01:30

[Профиль]  [ЛС] 

kizimd

Стаж: 5 лет 8 месяцев

Сообщений: 1

Спасибо,отличный фильм!

Создавать темы 24-Мар-2014 22:42

[Профиль]  [ЛС] 

KAMO

Стаж: 4 года 6 месяцев

Сообщений: 6

реально, лучший фильм, за 2013 год... тронуло до слёз...

Создавать темы 29-Мар-2014 22:48

[Профиль]  [ЛС] 

tamaza

Стаж: 6 лет 7 месяцев

Сообщений: 20

Этот фильм как удар под дых. Не думал, что меня может удивить кинофильм. молодцы создатели

Создавать темы 28-Апр-2014 13:53

[Профиль]  [ЛС] 

elbekb

Стаж: 5 лет 8 месяцев

Сообщений: 67

Симпатии: 3

У меня ни одного пира не видно . Why?

Создавать темы 29-Авг-2014 20:26

[Профиль]  [ЛС] 
Показать сообщения:    
Ответить на тему

Текущее время: 24-Ноя 17:44

Часовой пояс: UTC + 5



Вы не можете начинать темы
Вы не можете отвечать на сообщения
Вы не можете редактировать свои сообщения
Вы не можете удалять свои сообщения
Вы не можете голосовать в опросах
Вы не можете прикреплять файлы к сообщениям
Вы не можете скачивать файлы