Близость / Closer (Майк Николс) [2004 г., драма, мелодрама, DVDRip]

Ответить на тему
 

tkhismatulin ®

Стаж: 4 года

Сообщений: 2

Симпатии: 1

Близость / Closer
Год выпуска: 2004
Страна: США, Великобритания
Жанр: драма, мелодрама
Продолжительность: 01:43:00
Режиссер: Майк Николс
В ролях: Джулия Робертс,Джуд Лоу,Натали Портман,Клайв Оуэн,Ник Хоббс,Колин Стинтон,Бенхэм Стив,Элизабет Бауэр,Рэй Донн,Дэниэл Дреснер
Описание: Человек страдает, когда не получает того, чего хочет. Но еще больше он страдает, когда не может понять, чего он хочет. .. Молодой писатель Дэн влюблен в стриптизершу Элис, хотя не прочь закрутить роман с модным фотографом Анной. В то же время мрачный мачо Ларри становится бойфрендом Анны, однако встречается и с Элис. И никто из них не способен разобраться в своих чувствах и окончательно определиться, с кем же он желает остаться. Отношения внутри любовного четырехугольника постепенно накаляются, бросая героев в пучину страстей и неумолимо приближая их к неожиданной, парадоксальной развязке…
Качество: DVDRip
Формат: AVI
Видео кодек: XviD
Аудио кодек: MP3
Видео: 656x352, 23.976 fps, 824 Kbps
Аудио: MP3, 44.1 KHz, 107 Kbps
 

MediaInfo

General
Complete name :Closer.2004.BRRip.XviD-VLiS.avi
Format : AVI
Format/Info : Audio Video Interleave
File size : 701 MiB
Duration : 1h 43mn
Overall bit rate : 943 Kbps
Writing application : Nandub v1.0rc2
Writing library : Nandub build 1853/release
Video #0
ID : 0
Format : MPEG-4 Visual
Format profile : [email protected]
Format settings, BVOP : Yes
Format settings, QPel : No
Format settings, GMC : No warppoints
Format settings, Matrix : Default (H.263)
Codec ID : XVID
Codec ID/Hint : XviD
Duration : 1h 43mn
Bit rate : 824 Kbps
Width : 656 pixels
Height : 352 pixels
Display aspect ratio : 1.864
Frame rate : 23.976 fps
Resolution : 24 bits
Colorimetry : 4:2:0
Scan type : Progressive
Bits/(Pixel*Frame) : 0.149
Stream size : 612 MiB (87%)
Writing library : XviD 1.2.1 (UTC 2008-12-04)
Audio #1
ID : 1
Format : MPEG Audio
Format version : Version 1
Format profile : Layer 3
Codec ID : 55
Codec ID/Hint : MP3
Duration : 1h 43mn
Bit rate mode : Variable
Bit rate : 107 Kbps
Nominal bit rate : 112 Kbps
Channel(s) : 2 channels
Sampling rate : 44.1 KHz
Resolution : 16 bits
Stream size : 79.2 MiB (11%)
Alignment : Aligned on interleaves
Interleave, duration : 26 ms (0.63 video frame)
Interleave, preload duration : 171 ms
Writing library : LAME3.98r
Encoding settings : -m j -V 4 -q 3 -lowpass 15.6 --abr 112

Скриншоты

Создавать темы 06-Мар-2014 00:15

[Профиль]  [ЛС] 

alexey.555

Стаж: 5 лет 7 месяцев

Сообщений: 137

Симпатии: 22

Блин, не заметил раздел "Без перевода" и качнул без перевода bu

Создавать темы 18-Мар-2014 00:45

[Профиль]  [ЛС] 
Показать сообщения:    
Ответить на тему

Текущее время: 18-Ноя 09:50

Часовой пояс: UTC + 5



Вы не можете начинать темы
Вы не можете отвечать на сообщения
Вы не можете редактировать свои сообщения
Вы не можете удалять свои сообщения
Вы не можете голосовать в опросах
Вы не можете прикреплять файлы к сообщениям
Вы не можете скачивать файлы