Спасти мистера Бэнкса / Saving Mr. Banks (Джон Ли Хэнкок) (2013г., Драма, История, Биография, Музыка, HDRip) MVO [BaibaKo]

Ответить на тему
 

Suxrob89 ®

Стаж: 7 лет

Сообщений: 933

Симпатии: 564

- -«Её гениальная книга.
Его волшебная мечта»
- Год выпуска: 2013
Производство: США, Великобритания, Австралия / Walt Disney Pictures, BBC Films, Ruby Films
Жанр: Драма, История, Биография, Музыка
Перевод: Многоголосый закадровый, профессиональный [BaibaKo]
Субтитры: Отсутствуют
Продолжительность: 02:05:40-Режиссер: Джон Ли Хэнкок
Продюсер: Йен Колли, Кристин Ланган, Трой Льюм
Актеры: Эмма Томпсон, Том Хэнкс, Пол Джаматти, Джейсон Шварцман, Колин Фаррелл, Энни Роуз Бакли, Рут Уилсон, Брэдли Уитфорд, Б.Дж. Новак, Лили Бигхем-Описание фильма: История постановки классического художественного фильма Disney «Мэри Поппинс».
Когда Уолт Дисней пообещал своим дочерям снять фильм по их любимой книге, сказке Памелы Трэверс «Мэри Поппинс», он даже не подозревал, что на исполнение этого обещания ему понадобится более двадцати лет. В попытке получить права на экранизацию книги, Уолт столкнулся со своенравной и несговорчивой британской писательницей, которая ни в коем случае не хотела, чтобы ее любимая героиня была «испорчена» голливудским подходом к созданию фильмов. Лишь в начале шестидесятых она согласилась лично приехать в Лос-Анджелес и начать переговоры об экранизации.
На протяжении двух недель в 1961 году, пока длились переговоры с Памелой Трэверс, Уолт Дисней перепробовал все уловки. Он презентовал идеи и эскизы к фильму, пытался впечатлить писательницу великолепной музыкой, написанной талантливыми композиторами, братьями Шерман, и даже устраивал экскурсии в Диснейленд — однако Трэверс не шла ни на какие уговоры, и знаменитый кинематографист чуть было не отказался от своего замысла.- -Дата мировой премьеры: 20 октября 2013
Дата российской премьеры: 23 января 2014, «WDSSPR»
Дата выхода DVD релиза: 22 апреля 2014, «Уолт Дисней Компани СНГ»-Качество: HDRip [Рип с BDRip 720p]
Формат: AVI
Видео: XviD, 1266 Кбит/с, 720x304
Аудио: AC3, 6 ch, 384 Кбит/с

Media info

Общее
Полное имя                               : Spasti.Mr.Banksa.2013.P.HDRip.1.45Gb.avi
Формат                                   : AVI
Формат/Информация                        : Audio Video Interleave
Размер файла                             : 1,46 Гбайт
Продолжительность                        : 2 ч. 5 м.
Общий поток                              : 1659 Кбит/сек
Программа кодирования                    : VirtualDubMod 1.5.10.2 (build 2540/release)
Библиотека кодирования                   : VirtualDubMod build 2540/release
Видео
Идентификатор                            : 0
Формат                                   : MPEG-4 Visual
Профиль формата                          : Advanced [email protected]
Параметр BVOP формата                    : 2
Параметр QPel формата                    : Нет
Параметр GMC формата                     : Без точки перехода
Параметр матрицы формата                 : Выборочная
Идентификатор кодека                     : XVID
Идентификатор кодека/Подсказка           : XviD
Продолжительность                        : 2 ч. 5 м.
Битрейт                                  : 1266 Кбит/сек
Ширина                                   : 720 пикселей
Высота                                   : 304 пикселя
Соотношение сторон                       : 2,35:1
Частота кадров                           : 23,976 кадра/сек
Цветовое пространство                    : YUV
Субдискретизация насыщенности            : 4:2:0
Битовая глубина                          : 8 бит
Тип развёртки                            : Прогрессивная
Метод сжатия                             : С потерями
Бит/(Пиксели*Кадры)                      : 0.241
Размер потока                            : 1,11 Гбайт (76%)
Библиотека кодирования                   : XviD 1.2.1 (UTC 2008-12-04)
Аудио
Идентификатор                            : 1
Формат                                   : AC-3
Формат/Информация                        : Audio Coding 3
Расширение режима                        : CM (complete main)
Параметр Endianness формата              : Big
Идентификатор кодека                     : 2000
Продолжительность                        : 2 ч. 5 м.
Вид битрейта                             : Постоянный
Битрейт                                  : 384 Кбит/сек
Каналы                                   : 6 каналов
Расположение каналов                     : Front: L C R, Side: L R, LFE
Частота                                  : 48,0 КГц
Битовая глубина                          : 16 бит
Метод сжатия                             : С потерями
Размер потока                            : 345 Мбайт (23%)
Выравнивание                             : Разделение по промежуткам
Продолжительность промежутка             : 42  мс. (1,00 видеокадр)
Время предзагрузки промежутка            : 500  мс.

Скриншоты






Создавать темы 06-Мар-2014 06:47

[Профиль]  [ЛС] 

jama97

Стаж: 4 года 11 месяцев

Сообщений: 18

Симпатии: 2

когда лицуха?

Создавать темы 06-Мар-2014 06:51

[Профиль]  [ЛС] 

amuziyo

Стаж: 4 года 5 месяцев

Сообщений: 13

jama97, скоро будет

Создавать темы 06-Мар-2014 08:44

[Профиль]  [ЛС] 

AeRoNHanD

Стаж: 4 года 10 месяцев

Сообщений: 198

Симпатии: 3

789709когда лицуха?
йрелиз на Blu-Ray
22 апреля 2014

Создавать темы 06-Мар-2014 09:54

[Профиль]  [ЛС] 

AeRoNHanD

Стаж: 4 года 10 месяцев

Сообщений: 198

Симпатии: 3

то есть релиз)))

Создавать темы 06-Мар-2014 09:54

[Профиль]  [ЛС] 

zedikus

Стаж: 3 года 6 месяцев

Сообщений: 5

Симпатии: 1

ne ochen

Создавать темы 09-Мар-2014 23:19

[Профиль]  [ЛС] 

mdima

Стаж: 8 лет 6 месяцев

Сообщений: 29

чёткий фильм! не пожалеете!

Создавать темы 15-Мар-2014 12:13

[Профиль]  [ЛС] 

edgemza

Стаж: 6 лет 3 месяца

Сообщений: 191

Симпатии: 7

Спасибо большое за релиз! Сейчас как раз смотрю этот фильм, и у меня возникло огромное желание посмотреть сам фильм "Мэри Поппинс" (1954 г.), о котором здесь идет речь!
Может быть вы сможете и его залить?!
"Мэри Поппинс / Mary Poppins (Роберт Стивенсон / Robert Stevenson) [1964, США, мюзикл, фэнтези, комедия, BDRip] Dub + Sub (Rus, Eng) + Original Eng"
http://rutracker.org/forum/viewtopic.php?t=4669436
Размер: 2,89 Гб, вроде бы д.б. качество нормальным!
Наверно я не один такой, если что, желающие, поддержите меня!!! :)

Создавать темы 20-Май-2014 15:55

[Профиль]  [ЛС] 
Показать сообщения:    
Ответить на тему

Текущее время: 21-Авг 09:27

Часовой пояс: UTC + 5



Вы не можете начинать темы
Вы не можете отвечать на сообщения
Вы не можете редактировать свои сообщения
Вы не можете удалять свои сообщения
Вы не можете голосовать в опросах
Вы не можете прикреплять файлы к сообщениям
Вы не можете скачивать файлы