BBC: Замерзшая планета / BBC: Frozen planet (Аластер Фовергилл) [2011 г., Документальный, HDTVRip]

Ответить на тему
 

baho ®

Стаж: 3 года 11 месяцев

Сообщений: 37

Симпатии: 3

-BBC: Замерзшая планета / BBC: Frozen planet- -Год выпуска: 2011
Жанр: Документальный
Продолжительность: 7 х ~00:58:00
Режиссер: Аластер Фовергилл
В ролях: Дэвид Аттенборо, Ричард Аттенборо и др.-Описание: Новый захватывающий 7-ми серийный документальный сериал от BBC и сэра Дэвида Аттенборо о самых отдалённых уголках нашей планеты, о местах, где экстремальные условия отрицают само существования жизни. Однако жизнь здесь не просто существует, она процветает. Приспосабливаясь и изменяясь, приобретая удивительные формы, находя неожиданные способы существования, жизнь еще раз доказывает величие и грандиозность эволюции. Вас ждут потрясающие съемки касаток во льдах, тюленей, пингвинов, полярных птиц и величественных айсбергов. И все это параллельно исследованию о меняющемся климате этих регионов.-Качество: HDTVRip
Формат: MKV
Видео кодек: H.26x
Аудио кодек: MP3
Видео: 896 x 504 (1:77:7), 25.000 кадр/сек, AVC (х264), [email protected], ~ 1 654 Kbps, 0.147 bit/pixel
Аудио: 48 kHz, MPEG Layer 3, 2/0 (L, R) ch, ~128 kbps

Список серий


1. На краях Земли / To the Ends of the Earth
2. Весна / Spring
3. Лето / Summer
4. Осень / Autumn
5. Зима / Winter
6. Последний рубеж / The last frontier
7. На тонком льду / On thin ice
8. Наука на краю Земли / Science at the end of the Earth

MI

General
Unique ID : 173368226818440847980229000417992079021 (0x826D8185834E241180A04C199E0576AD)
Complete name :zamerzshaja_planeta\zamerzshaja_planeta_2_vesna.mkv
Format : Matroska
Format version : Version 2
File size : 745 MiB
Duration : 57mn 41s
Overall bit rate mode : Variable
Overall bit rate : 1 805 Kbps
Encoded date : UTC 2012-02-26 20:28:09
Writing application : mkvmerge v5.0.1 ('Es ist Sommer') built on Oct 24 2011 19:45:06
Writing library : libebml v1.2.2 + libmatroska v1.3.0
Video
ID : 1
Format : AVC
Format/Info : Advanced Video Codec
Format profile : [email protected]
Format settings, CABAC : Yes
Format settings, ReFrames : 8 frames
Codec ID : V_MPEG4/ISO/AVC
Duration : 57mn 41s
Bit rate : 1 681 Kbps
Width : 896 pixels
Height : 504 pixels
Display aspect ratio : 16:9
Frame rate mode : Constant
Frame rate : 25.000 fps
Color space : YUV
Chroma subsampling : 4:2:0
Bit depth : 8 bits
Scan type : Progressive
Bits/(Pixel*Frame) : 0.149
Stream size : 677 MiB (91%)
Writing library : x264 core 119 r2106 07efeb4
Encoding settings : cabac=1 / ref=8 / deblock=1:-1:-1 / analyse=0x3:0x133 / me=umh / subme=7 / psy=1 / psy_rd=1.00:0.10 / mixed_ref=1 / me_range=16 / chroma_me=1 / trellis=2 / 8x8dct=1 / cqm=0 / deadzone=21,11 / fast_pskip=0 / chroma_qp_offset=-3 / threads=12 / sliced_threads=0 / nr=0 / decimate=1 / interlaced=0 / bluray_compat=0 / constrained_intra=0 / bframes=3 / b_pyramid=2 / b_adapt=2 / b_bias=0 / direct=3 / weightb=1 / open_gop=0 / weightp=2 / keyint=250 / keyint_min=25 / scenecut=40 / intra_refresh=0 / rc_lookahead=50 / rc=2pass / mbtree=1 / bitrate=1681 / ratetol=1.0 / qcomp=0.60 / qpmin=0 / qpmax=69 / qpstep=4 / cplxblur=20.0 / qblur=0.5 / ip_ratio=1.40 / aq=1:1.00
Default : Yes
Forced : No
Audio
ID : 2
Format : MPEG Audio
Format version : Version 1
Format profile : Layer 3
Mode : Joint stereo
Mode extension : MS Stereo
Codec ID : A_MPEG/L3
Codec ID/Hint : MP3
Duration : 55mn 1s
Bit rate mode : Variable
Bit rate : 128 Kbps
Channel count : 2 channels
Sampling rate : 48.0 KHz
Compression mode : Lossy
Stream size : 50.4 MiB (7%)
Writing library : LAME3.99
Encoding settings : -m j -V 4 -q 2 -lowpass 17 --abr 128
Default : Yes
Forced : No

Скриншоты


Создавать темы 06-Мар-2014 21:36

[Профиль]  [ЛС] 
Показать сообщения:    
Ответить на тему

Текущее время: 27-Сен 03:57

Часовой пояс: UTC + 5



Вы не можете начинать темы
Вы не можете отвечать на сообщения
Вы не можете редактировать свои сообщения
Вы не можете удалять свои сообщения
Вы не можете голосовать в опросах
Вы не можете прикреплять файлы к сообщениям
Вы не можете скачивать файлы