Рэп как искусство / Что-то из ничего: Искусство Рэпа / Something from Nothing: The Art of Rap (Айс-Ти, Энди Бейбатт) [2012 г., документальный, музыка, BDRip 720p]

Ответить на тему
 

Дмитриев ®

Стаж: 7 лет 2 месяца

Сообщений: 139

Симпатии: 12

Рэп как искусство / Что-то из ничего: Искусство Рэпа / Something from Nothing: The Art of Rap
Год выпуска: 2012
Страна: Великобритания, США
Жанр: документальный, музыка
Продолжительность: 01:51:23
Перевод: Одноголосый закадровый Scary Records (по переводу от Yazzzzzva aka Анна Гуринович)
Cубтитры: французские (без фристайла)
Оригинальная аудиодорожка: английский
Режиссер: Айс-Ти, Энди Бейбатт
В ролях: Afrika Bambaataa, Big Daddy Kane, B-Real, Bun B, Cashout Chris, Chino XL, Chuck D, Common, Dana Dane, Denis "Deft" Matinez, DJ Premier, DMC, Doug E. Fresh, Dr. Dre, Eminem, Feddie Demarco, Grandmaster Caz, Ice Cube, Ice-T, Immortal Technique, Joe Budden, Kanye West, Kool Boy, Kool Keith, Kool Moe Dee, KRS-One, Loke, Lord Finesse, Lord Jamar, Marley Marl, MC Lyte, Melle Mel, Nas, Puerto Rico, Q-Tip, Raekwon, Rakim, Ras Kass, Redman, Royce Da 5'9", Run, Salt, Snoop Dogg, Tha Furious One, Treach, WC, Xzibit.
Описание: Рэп-энциклопедия из первых уст: постановщиком этого шумного и боевого фильма стал Айс-Ти, киноактер и крестный отец гангста-рэпа. «Рэп спас мою жизнь», — говорит Айс-Ти, и у нас нет причин в этом сомневаться. Горячечная искренность, а не только «умение быстро говорить» (как презрительно определяли рэп позднесоветские комсомольцы) — отличительная черта рэпа, искусства из слов и мяса.
Качество: BDRip 720p (рип от Cris01)
Формат: MKV
Видео: AVC (x264), 1280x720 (16:9) at 24,000 fps, 7000 Кbps, 0.316 bpp
Аудио 1: AC3; 192 Kbps; CBR; 2 ch; 48 khz | L1 - Scary Records |
Аудио 2: DTS; 1536 Kbps; CBR; 6 ch; 48 khz; 24 bit | Английский |
Формат субтитров: softsub (SRT)

Показать Медиа Инфо

Format : Matroska
Format version : Version 4 / Version 2
File size : 6.77 GiB
Duration : 1h 51mn
Overall bit rate : 8 701 Kbps
Movie name : profile.php?mode=viewprofile&u=22488948
Encoded date : UTC 2013-01-21 09:54:03
Writing application : mkvmerge v6.0.0 ('Coming Up For Air') built on Jan 20 2013 09:52:00
Writing library : libebml v1.3.0 + libmatroska v1.4.0
Video
ID : 1
Format : AVC
Format/Info : Advanced Video Codec
Format profile : [email protected]
Format settings, CABAC : Yes
Format settings, ReFrames : 9 frames
Codec ID : V_MPEG4/ISO/AVC
Duration : 1h 51mn
Bit rate : 7 000 Kbps
Width : 1 280 pixels
Height : 720 pixels
Display aspect ratio : 16:9
Frame rate mode : Constant
Frame rate : 24.000 fps
Color space : YUV
Chroma subsampling : 4:2:0
Bit depth : 8 bits
Scan type : Progressive
Bits/(Pixel*Frame) : 0.316
Stream size : 5.31 GiB (78%)
Writing library : x264 core 120 r2120 0c7dab9
Encoding settings : cabac=1 / ref=9 / deblock=1:-3:-3 / analyse=0x3:0x113 / me=umh / subme=11 / psy=1 / psy_rd=0.90:0.02 / mixed_ref=1 / me_range=64 / chroma_me=1 / trellis=2 / 8x8dct=1 / cqm=0 / deadzone=21,11 / fast_pskip=0 / chroma_qp_offset=-3 / threads=6 / sliced_threads=0 / nr=0 / decimate=1 / interlaced=0 / bluray_compat=0 / constrained_intra=0 / bframes=4 / b_pyramid=2 / b_adapt=2 / b_bias=0 / direct=1 / weightb=1 / open_gop=1 / weightp=2 / keyint=240 / keyint_min=23 / scenecut=40 / intra_refresh=0 / rc_lookahead=120 / rc=2pass / mbtree=1 / bitrate=7000 / ratetol=1.0 / qcomp=0.60 / qpmin=10 / qpmax=51 / qpstep=4 / cplxblur=20.0 / qblur=0.5 / vbv_maxrate=50000 / vbv_bufsize=50000 / nal_hrd=none / ip_ratio=1.40 / aq=1:1.00
Language : English
Default : Yes
Forced : No
Audio #1
ID : 2
Format : AC-3
Format/Info : Audio Coding 3
Mode extension : CM (complete main)
Format settings, Endianness : Big
Codec ID : A_AC3
Duration : 1h 51mn
Bit rate mode : Constant
Bit rate : 192 Kbps
Channel(s) : 2 channels
Channel positions : Front: L R
Sampling rate : 48.0 KHz
Bit depth : 16 bits
Compression mode : Lossy
Stream size : 153 MiB (2%)
Title : L1 [Scary Records]
Language : Russian
Default : Yes
Forced : No
Audio #2
ID : 3
Format : DTS
Format/Info : Digital Theater Systems
Mode : 16
Format settings, Endianness : Big
Codec ID : A_DTS
Duration : 1h 51mn
Bit rate mode : Constant
Bit rate : 1 509 Kbps
Channel(s) : 6 channels
Channel positions : Front: L C R, Side: L R, LFE
Sampling rate : 48.0 KHz
Bit depth : 24 bits
Compression mode : Lossy
Stream size : 1.17 GiB (17%)
Language : English
Default : No
Forced : No
Text
ID : 4
Format : UTF-8
Codec ID : S_TEXT/UTF8
Codec ID/Info : UTF-8 Plain Text
Language : French
Default : No
Forced : No
Menu
00:00:00.000 : :00:00:00.000
00:07:17.917 : :00:07:17.917
00:21:37.833 : :00:21:37.833
00:27:31.792 : :00:27:31.792
00:36:19.167 : :00:36:19.167
00:44:22.792 : :00:44:22.792
00:55:29.875 : :00:55:29.875
01:05:50.000 : :01:05:50.000
01:11:16.542 : :01:11:16.542
01:26:11.250 : :01:26:11.250
01:32:45.500 : :01:32:45.500
01:40:39.208 : :01:40:39.208

Показать Скриншоты




Последний раз редактировалось: Дмитриев (2014-03-08 19:42), всего редактировалось 2 раз(а)

Создавать темы 06-Мар-2014 23:31

[Профиль]  [ЛС] 

-MilaSHka-

Стаж: 4 года 10 месяцев

Сообщений: 8

Симпатии: 1

Дмитриев Ты СуПеР спасибо большое

Создавать темы 06-Мар-2014 23:36

[Профиль]  [ЛС] 

Riko

Стаж: 7 лет

Сообщений: 8

Симпатии: 1

Спасибо за релиз отличное качество
Модеры подъём md

Создавать темы 06-Мар-2014 23:55

[Профиль]  [ЛС] 

Топик был перенесен из форума Документальные фильмы и телепередачи в форум Документальные фильмы
СтАсИкОс

Создавать темы 08-Мар-2014 20:31

 

DazZzle

Стаж: 4 года 6 месяцев

Сообщений: 95

ахахха скачано с TopMusic.uz?? я хотел скачать но чет хреново было с браузера качать 6 гб( а так спасибо тебе) выручил)

Создавать темы 10-Мар-2014 17:17

[Профиль]  [ЛС] 

KINGJOKER

Стаж: 4 года 4 месяца

Сообщений: 4

дайте скорость

Создавать темы 06-Апр-2014 16:15

[Профиль]  [ЛС] 
Показать сообщения:    
Ответить на тему

Текущее время: 19-Авг 08:46

Часовой пояс: UTC + 5



Вы не можете начинать темы
Вы не можете отвечать на сообщения
Вы не можете редактировать свои сообщения
Вы не можете удалять свои сообщения
Вы не можете голосовать в опросах
Вы не можете прикреплять файлы к сообщениям
Вы не можете скачивать файлы