Море даёт, море забирает / Fjällbackamorden: Havet ger, havet tar (Маркус Олссон) [2013 г., Криминал, DVDRip] LO

Ответить на тему
 

Suxrob89 ®

Стаж: 7 лет 3 месяца

Сообщений: 933

Симпатии: 564

-Море даёт, море забирает / Fjällbackamorden: Havet ger, havet tar- Год выпуска: 2013
Страна: Швеция
Жанр: Криминал
Продолжительность: 01:28:15
Перевод: Любительский (одноголосый)
Озвучка / Автор перевода: datynet-Режиссер: Маркус Олссон-В ролях: Клаудия Галли, Ричард Ульфзэтер, Эва Фритйофсон, Памела Кортес Бруна, Леннарт Якель, Джимми Линдстрём-Описание: Однажды писатель Эрика Фальк, живущая в шведском городке Фьелльбакке, обнаруживает труп пожилого фотографа Стигге Эрикссона. Он был другом Эрики, и она начинает поиски того, кто совершил жестокое преступление. Полиция, в которой работает ее муж Патрик, всегда на шаг позади собственного расследования Эрики...
Фильм по роману известной шведской писательницы Камиллы Лекберг.--Качество: DVDRip
Формат: AVI
Видео: XviD, 720x400, 1910 Кбит/сек, 25,000 кадров/сек
Аудио 1: МР3, 2 каналa, 44,1 КГц, 192 Кбит/сек Русский
Аудио 2: АС3, 6 каналов, 48,0 КГц, 256 Кбит/сек Шведский

MediaInfo:

Общее
Полное имя : C:Торренты\Море даёт, море забирает.2013.DVDRip.avi
Формат : AVI
Формат/Информация : Audio Video Interleave
Размер файла : 1,46 Гбайт
Продолжительность : 1 ч. 28 м.
Общий поток : 2372 Кбит/сек
Программа кодирования : VirtualDubMod 1.5.10.3 (build 2550/release)
Библиотека кодирования : VirtualDubMod build 2550/release
Видео
Идентификатор : 0
Формат : MPEG-4 Visual
Профиль формата : Advanced [email protected]
Параметр BVOP формата : 2
Параметр QPel формата : Нет
Параметр GMC формата : Без точки перехода
Параметр матрицы формата : Выборочная
Идентификатор кодека : XVID
Идентификатор кодека/Подсказка : XviD
Продолжительность : 1 ч. 28 м.
Битрейт : 1910 Кбит/сек
Ширина : 720 пикселей
Высота : 400 пикселей
Соотношение сторон : 16:9
Частота кадров : 25,000 кадров/сек
Цветовое пространство : YUV
Субдискретизация насыщенности : 4:2:0
Битовая глубина : 8 бит
Тип развёртки : Прогрессивная
Метод сжатия : С потерями
Бит/(Пиксели*Кадры) : 0.265
Размер потока : 1,18 Гбайт (81%)
Библиотека кодирования : XviD 1.2.1 (UTC 2008-12-04)
Аудио #1
Идентификатор : 1
Формат : MPEG Audio
Версия формата : Version 1
Профиль формата : Layer 3
Идентификатор кодека : 55
Идентификатор кодека/Подсказка : MP3
Продолжительность : 1 ч. 28 м.
Вид битрейта : Постоянный
Битрейт : 192 Кбит/сек
Каналы : 2 канала
Частота : 44,1 КГц
Метод сжатия : С потерями
Размер потока : 121 Мбайт (8%)
Выравнивание : Разделение по промежуткам
Продолжительность промежутка : 40 мс. (1,00 видеокадр)
Время предзагрузки промежутка : 500 мс.
Аудио #2
Идентификатор : 2
Формат : AC-3
Формат/Информация : Audio Coding 3
Расширение режима : CM (complete main)
Параметр Endianness формата : Big
Идентификатор кодека : 2000
Продолжительность : 1 ч. 28 м.
Вид битрейта : Постоянный
Битрейт : 256 Кбит/сек
Каналы : 6 каналов
Расположение каналов : Front: L C R, Side: L R, LFE
Частота : 48,0 КГц
Битовая глубина : 16 бит
Метод сжатия : С потерями
Размер потока : 162 Мбайт (11%)
Выравнивание : Разделение по промежуткам
Продолжительность промежутка : 40 мс. (1,00 видеокадр)
Время предзагрузки промежутка : 500 мс.

Скриншоты

Создавать темы 07-Мар-2014 08:08

[Профиль]  [ЛС] 
Показать сообщения:    
Ответить на тему

Текущее время: 20-Ноя 14:48

Часовой пояс: UTC + 5



Вы не можете начинать темы
Вы не можете отвечать на сообщения
Вы не можете редактировать свои сообщения
Вы не можете удалять свои сообщения
Вы не можете голосовать в опросах
Вы не можете прикреплять файлы к сообщениям
Вы не можете скачивать файлы