(Pop) Jessica Jay - Collections [2CD] - promo - 2000, FLAC (tracks), lossless

Ответить на тему
 

Slowwalker ®

Стаж: 4 года 9 месяцев

Сообщений: 165

Симпатии: 68

Jessica Jay / Collections [2CD] - promo-
-Жанр: POP | Годы издания: 2000 | Аудиокодек: FLAC | Битрейт аудио: lossless | Тип рипов: tracks | Продолжительность: 01:30:09 | Наличие сканов в содержимом раздачи: да-Треклист:

Disc I

01. My Macho
02. Summer Night
03. Chilly Cha Cha
04. Can't Take My Eyes Off You
05. My Heart Will Go On
06. Can't Help Falling In Love
07. Casablanca
08. Time Is All We Need
09. Always
10. One More Try
11. Broken Hearted Woman [Millennium Mix]
12. Summer Night [Buena Vista Club]
13. My Macho [DJ Special Edit]
14. Chilly Cha Cha [Chinese Version]

Disc II Bonus CD MIXED

01. Mix I
- You Don't Have To Say You Love Me
- Kiss Me Another
- Rain & Tears
- The Tight Is High
- Time Is All We Need
- Chilly Cha Cha
- Can't Take My Eyes Off You
02. Mix II
- I Swear
- Broken Hearted Woman
- One More Try
- Another Sad Love Song
- Denpasar Moon
- The Room At The Top of The Stairs
- Casablanca
- Flirtatious Heart
- Always
Лог создания рипа

CD 1

[pre]CUERipper v2.1.4 Copyright (C) 2008-12 Grigory Chudov
EAC extraction logfile from 18. February 2013, 19:56
Jessica Jay / Collections [CD1] - promo
Used drive : HL-DT-ST DVDRAM GSA-T20N Adapter: 1 ID: 0
Read mode : Secure
Utilize accurate stream : Yes
Defeat audio cache : Yes
Make use of C2 pointers : No
Read offset correction : 667
Overread into Lead-In and Lead-Out : No
Fill up missing offset samples with silence : Yes
Delete leading and trailing silent blocks : No
Null samples used in CRC calculations : Yes
Used interface : Native Win32 interface for Win NT & 2000
Gap handling : Appended to previous track
Used output format : Internal WAV Routines
Sample format : 44.100 Hz; 16 Bit; Stereo
TOC of the extracted CD
Track | Start | Length | Start sector | End sector
---------------------------------------------------------
1 | 0:00.00 | 4:02.42 | 0 | 18191
2 | 4:02.42 | 3:33.19 | 18192 | 34185
3 | 7:35.61 | 4:39.24 | 34186 | 55134
4 | 12:15.10 | 5:15.30 | 55135 | 78789
5 | 17:30.40 | 4:13.38 | 78790 | 97802
6 | 21:44.03 | 3:55.44 | 97803 | 115471
7 | 25:39.47 | 6:20.50 | 115472 | 144021
8 | 32:00.22 | 3:37.03 | 144022 | 160299
9 | 35:37.25 | 4:54.33 | 160300 | 182382
10 | 40:31.58 | 4:36.63 | 182383 | 203145
11 | 45:08.46 | 3:39.08 | 203146 | 219578
12 | 48:47.54 | 5:15.56 | 219579 | 243259
13 | 54:03.35 | 3:38.56 | 243260 | 259665
14 | 57:42.16 | 4:01.43 | 259666 | 277783
Track 1
Filename C:\Users\Администратор\Music\Jessica Jay\2000 - Collections [CD1] - promo\01. My Macho.wav
Pre-gap length 0:00:02.00
Peak level 99.9 %
Track quality 100.0 %
Test CRC 3CBF0E31
Copy CRC 3CBF0E31
Track not present in AccurateRip database
Copy OK
Track 2
Filename C:\Users\Администратор\Music\Jessica Jay\2000 - Collections [CD1] - promo\02. Summer Night.wav
Pre-gap length 0:00:01.73
Peak level 99.9 %
Track quality 100.0 %
Test CRC 6F70137C
Copy CRC 6F70137C
Track not present in AccurateRip database
Copy OK
Track 3
Filename C:\Users\Администратор\Music\Jessica Jay\2000 - Collections [CD1] - promo\03. Chilly Cha Cha.wav
Pre-gap length 0:00:01.73
Peak level 96.6 %
Track quality 100.0 %
Test CRC C17B2069
Copy CRC C17B2069
Track not present in AccurateRip database
Copy OK
Track 4
Filename C:\Users\Администратор\Music\Jessica Jay\2000 - Collections [CD1] - promo\04. Can't Take My Eyes Off You.wav
Pre-gap length 0:00:01.73
Peak level 94.3 %
Track quality 100.0 %
Test CRC A94BC6DE
Copy CRC A94BC6DE
Track not present in AccurateRip database
Copy OK
Track 5
Filename C:\Users\Администратор\Music\Jessica Jay\2000 - Collections [CD1] - promo\05. My Heart Will Go On.wav
Pre-gap length 0:00:01.73
Peak level 100.0 %
Track quality 100.0 %
Test CRC 16A543FB
Copy CRC 16A543FB
Track not present in AccurateRip database
Copy OK
Track 6
Filename C:\Users\Администратор\Music\Jessica Jay\2000 - Collections [CD1] - promo\06. Can't Help Falling In Love.wav
Pre-gap length 0:00:01.74
Peak level 99.9 %
Track quality 100.0 %
Test CRC F0A355AD
Copy CRC F0A355AD
Track not present in AccurateRip database
Copy OK
Track 7
Filename C:\Users\Администратор\Music\Jessica Jay\2000 - Collections [CD1] - promo\07. Casablanca.wav
Pre-gap length 0:00:01.73
Peak level 99.9 %
Track quality 100.0 %
Test CRC E0553483
Copy CRC E0553483
Track not present in AccurateRip database
Copy OK
Track 8
Filename C:\Users\Администратор\Music\Jessica Jay\2000 - Collections [CD1] - promo\08. Time Is All We Need.wav
Pre-gap length 0:00:01.73
Peak level 100.0 %
Track quality 100.0 %
Test CRC 9AFC9AEA
Copy CRC 9AFC9AEA
Track not present in AccurateRip database
Copy OK
Track 9
Filename C:\Users\Администратор\Music\Jessica Jay\2000 - Collections [CD1] - promo\09. Always.wav
Pre-gap length 0:00:01.74
Peak level 99.9 %
Track quality 100.0 %
Test CRC 740E785B
Copy CRC 740E785B
Track not present in AccurateRip database
Copy OK
Track 10
Filename C:\Users\Администратор\Music\Jessica Jay\2000 - Collections [CD1] - promo\10. One More Try.wav
Pre-gap length 0:00:01.73
Peak level 99.9 %
Track quality 100.0 %
Test CRC 3B336245
Copy CRC 3B336245
Track not present in AccurateRip database
Copy OK
Track 11
Filename C:\Users\Администратор\Music\Jessica Jay\2000 - Collections [CD1] - promo\11. Broken Hearted Woman [Millennium Mix].wav
Pre-gap length 0:00:01.73
Peak level 100.0 %
Track quality 100.0 %
Test CRC 8BF340BA
Copy CRC 8BF340BA
Track not present in AccurateRip database
Copy OK
Track 12
Filename C:\Users\Администратор\Music\Jessica Jay\2000 - Collections [CD1] - promo\12. Summer Night [Buena Vista Club].wav
Pre-gap length 0:00:01.72
Peak level 99.4 %
Track quality 100.0 %
Test CRC 3EFCA203
Copy CRC 3EFCA203
Track not present in AccurateRip database
Copy OK
Track 13
Filename C:\Users\Администратор\Music\Jessica Jay\2000 - Collections [CD1] - promo\13. My Macho [DJ Special Edit].wav
Pre-gap length 0:00:01.76
Peak level 99.9 %
Track quality 100.0 %
Test CRC 11555195
Copy CRC 11555195
Track not present in AccurateRip database
Copy OK
Track 14
Filename C:\Users\Администратор\Music\Jessica Jay\2000 - Collections [CD1] - promo\14. Chilly Cha Cha [Chinese Version].wav
Pre-gap length 0:00:01.73
Peak level 99.9 %
Track quality 100.0 %
Test CRC 8ED5FA5A
Copy CRC 8ED5FA5A
Track not present in AccurateRip database
Copy OK
None of the tracks are present in the AccurateRip database
No errors occurred
End of status report[свернуть]

CD 2

CUERipper v2.1.4 Copyright (C) 2008-12 Grigory Chudov
EAC extraction logfile from 18. February 2013, 20:23
Jessica Jay / Collections [CD2] - promo
Used drive : HL-DT-ST DVDRAM GSA-T20N Adapter: 1 ID: 0
Read mode : Secure
Utilize accurate stream : Yes
Defeat audio cache : Yes
Make use of C2 pointers : No
Read offset correction : 667
Overread into Lead-In and Lead-Out : No
Fill up missing offset samples with silence : Yes
Delete leading and trailing silent blocks : No
Null samples used in CRC calculations : Yes
Used interface : Native Win32 interface for Win NT & 2000
Gap handling : Appended to previous track
Used output format : Internal WAV Routines
Sample format : 44.100 Hz; 16 Bit; Stereo
TOC of the extracted CD
Track | Start | Length | Start sector | End sector
---------------------------------------------------------
1 | 0:00.01 | 12:51.50 | 1 | 57875
2 | 12:51.51 | 24:40.05 | 57876 | 168880
Track 1
Filename C:\Users\Администратор\Music\Jessica Jay\2000 - Collections [CD2] - promo\01. Non-Stop Cha Cha Mix I.wav
Pre-gap length 0:00:02.01
Peak level 100.0 %
Track quality 100.0 %
Test CRC 6D60775B
Copy CRC 6D60775B
Track not present in AccurateRip database
Copy OK
Track 2
Filename C:\Users\Администратор\Music\Jessica Jay\2000 - Collections [CD2] - promo\02. Non-Stop Cha Cha Mix II.wav
Peak level 97.5 %
Track quality 100.0 %
Test CRC C39A7918
Copy CRC C39A7918
Track not present in AccurateRip database
Copy OK
None of the tracks are present in the AccurateRip database
No errors occurred
End of status report

Создавать темы 07-Мар-2014 19:14

[Профиль]  [ЛС] 

Slowwalker ®

Стаж: 4 года 9 месяцев

Сообщений: 165

Симпатии: 68

Скачано с мира и залита по просьбе пользователя Buagich

Создавать темы 07-Мар-2014 19:16

[Профиль]  [ЛС] 
Показать сообщения:    
Ответить на тему

Текущее время: 17-Окт 12:43

Часовой пояс: UTC + 5



Вы не можете начинать темы
Вы не можете отвечать на сообщения
Вы не можете редактировать свои сообщения
Вы не можете удалять свои сообщения
Вы не можете голосовать в опросах
Вы не можете прикреплять файлы к сообщениям
Вы не можете скачивать файлы