Лекарь: Ученик Авиценны / The Physician (Филипп Штёльцль) [2013, Драма, Приключения, WEB-DLRip] | (iTunes)

Страницы :  1, 2, 3, 4  След.

Ответить на тему
 

Suxrob89 ®

Стаж: 7 лет 2 месяца

Сообщений: 933

Симпатии: 564

-Лекарь: Ученик Авиценны / The Physician-"Через пески времени к свету" - Год выпуска: 2013
Производство: Германия, UFA Cinema, ARD Degeto Film, Beta Cinema
Жанр: Драма, Приключения
Перевод: Дублированный (iTunes)
Субтитры: Отсутствуют
Продолжительность: 02:34:41-Режиссер: Филипп Штёльцль
Продюсер: Вульф Бауэр, Нико Хофманн, Ахмед Абуноум-Актеры: Том Пэйн, Бен Кингсли, Эмма Ригби, Стеллан Скарсгард, Оливье Мартинес, Элиас ЭмБарек, Майкл Джибсон, Стэнли Таунсенд, Майкл Маркус Морган, Адам Томас Райт-Описание фильма: Англия, XI век. Мать десятилетнего Роба Коула умирает в страшных мучениях: никто не знает ни природы её болезни, ни лекарства против неё. Маленький Роб, потрясенный до глубины души, во что бы то ни стало стремится разгадать эту тайну.
Ему суждено пройти долгий путь, от Англии до Персии, его учителями становятся сначала обыкновенный шарлатан Барбер, а потом — великий лекарь Авиценна. Мудрый учитель видит в Робе необыкновенный талант к медицине, но советует ему не спешить делать вещи, которые не соответствуют веку. Но Роб ни перед чем не останавливается в своем желании научиться спасать людей от смерти, и над его собственной жизнью нависает угроза, ведь он дважды пошел против предрассудков: использовал для научных исследований тело человека и полюбил женщину, отданную в жены другому.- -Дата мировой премьеры: 25 декабря 2013
Дата российской премьеры: 6 февраля 2014, «Люксор»-Качество: WEB-DLRip
Формат: AVI
Видео: XviD, 1128 kb/s, 720x304
Аудио: AC3, 128 kb/s (2 ch)

Media info

Общее
Полное имя                               : D:\Lekar.Uchenik.Aviacenna.2014.WEB-DLRip.avi
Формат                                   : AVI
Формат/Информация                        : Audio Video Interleave
Размер файла                             : 1,37 Гбайт
Продолжительность                        : 2 ч. 34 м.
Общий поток                              : 1265 Кбит/сек
Программа кодирования                    : VirtualDubMod 1.5.10.2 (build 2540/release)
Библиотека кодирования                   : VirtualDubMod build 2540/release
Видео
Идентификатор                            : 0
Формат                                   : MPEG-4 Visual
Профиль формата                          : Advanced [email protected]
Параметр BVOP формата                    : 2
Параметр QPel формата                    : Нет
Параметр GMC формата                     : Без точки перехода
Параметр матрицы формата                 : Выборочная
Идентификатор кодека                     : XVID
Идентификатор кодека/Подсказка           : XviD
Продолжительность                        : 2 ч. 34 м.
Битрейт                                  : 1128 Кбит/сек
Ширина                                   : 720 пикселей
Высота                                   : 304 пикселя
Соотношение сторон                       : 2,35:1
Частота кадров                           : 24,000 кадра/сек
Цветовое пространство                    : YUV
Субдискретизация насыщенности            : 4:2:0
Битовая глубина                          : 8 бит
Тип развёртки                            : Прогрессивная
Метод сжатия                             : С потерями
Бит/(Пиксели*Кадры)                      : 0.215
Размер потока                            : 1,22 Гбайт (89%)
Библиотека кодирования                   : XviD 1.2.1 (UTC 2008-12-04)
Аудио
Идентификатор                            : 1
Формат                                   : AC-3
Формат/Информация                        : Audio Coding 3
Расширение режима                        : CM (complete main)
Параметр Endianness формата              : Big
Идентификатор кодека                     : 2000
Продолжительность                        : 2 ч. 34 м.
Вид битрейта                             : Постоянный
Битрейт                                  : 128 Кбит/сек
Каналы                                   : 2 канала
Расположение каналов                     : Front: L R
Частота                                  : 48,0 КГц
Битовая глубина                          : 16 бит
Метод сжатия                             : С потерями
Размер потока                            : 142 Мбайт (10%)
Выравнивание                             : Разделение по промежуткам
Продолжительность промежутка             : 42  мс. (1,00 видеокадр)
Время предзагрузки промежутка            : 500  мс.

Скриншоты

Создавать темы 08-Мар-2014 07:23

[Профиль]  [ЛС] 

redbee96

Стаж: 3 года 11 месяцев

Сообщений: 16

Симпатии: 2

Мы такими темпами на следующей неделе скачаем походу

Создавать темы 08-Мар-2014 17:03

[Профиль]  [ЛС] 

ayba93

Стаж: 4 года 5 месяцев

Сообщений: 3

Симпатии: 1

Фильм просто класс!!! советую всем) помогу с раздачей

Создавать темы 10-Мар-2014 00:58

[Профиль]  [ЛС] 

centuriy

Стаж: 6 лет 3 месяца

Сообщений: 25

Симпатии: 1

Спасибо! Давно ждали

Создавать темы 10-Мар-2014 11:21

[Профиль]  [ЛС] 

Daganet

Стаж: 6 лет 4 месяца

Сообщений: 14

Симпатии: 1

скриншоты из фильма ?

Создавать темы 10-Мар-2014 21:18

[Профиль]  [ЛС] 

el briko

Стаж: 4 года 3 месяца

Сообщений: 54

Симпатии: 4

лысый на скрине Мандарин?)))))....

Создавать темы 11-Мар-2014 22:40

[Профиль]  [ЛС] 

narmayax

Стаж: 3 года 11 месяцев

Сообщений: 15

Симпатии: 1

200 сидеров...скорость закачки 0... Беда(((

Создавать темы 12-Мар-2014 13:54

[Профиль]  [ЛС] 

azuzin

Стаж: 5 лет 9 месяцев

Сообщений: 33

Симпатии: 3

спасибо!!!!

Создавать темы 12-Мар-2014 15:20

[Профиль]  [ЛС] 

Mrblack

Стаж: 6 лет 5 месяцев

Сообщений: 247

Симпатии: 52

Замечательный фильм! Смотрится на одном дыхании! Давно не было таких фильмов, хорошие съемки и сюжет.

Создавать темы 12-Мар-2014 17:58

[Профиль]  [ЛС] 

qsxv

Стаж: 3 года 10 месяцев

Сообщений: 4

Симпатии: 1

Фильм просто супер, помогу с раздачей!!!!!!!!!!!!!!

Создавать темы 13-Мар-2014 08:05

[Профиль]  [ЛС] 

farid0888

Стаж: 5 лет 5 месяцев

Сообщений: 232

Симпатии: 49

qsxv, Согласен фильм реально классный.

Создавать темы 13-Мар-2014 10:51

[Профиль]  [ЛС] 

gaffar

Стаж: 4 года 9 месяцев

Сообщений: 42

Симпатии: 1

Фильм просто супер! ВАВВВ!

Создавать темы 13-Мар-2014 12:15

[Профиль]  [ЛС] 

Astrolog

Стаж: 5 лет 4 месяца

Сообщений: 213

Симпатии: 27

Может быть "фильм просто супер" по жанру.
Жаль однако, что создатели кинокартины не воспользовались помощью компетентных историков-консультантов: фильм несомненно получил бы свой плюс в этом аспекте.

Создавать темы 13-Мар-2014 12:57

[Профиль]  [ЛС] 

Kit

Стаж: 5 лет 1 месяц

Сообщений: 153

Симпатии: 9

Astrolog, а фильм не имеет никакого отношения к истории, он снят по одноименному историческому роману Ноя Гордона - Лекарь: Ученик Авиценны, для "компетентных историков-консультантов" существует National Geographic
да и не думаю, что есть "компетентные историки", есть только догадки и письменные труды написанные "неизвестно кем", портал перемещений в прошлое пока закрыт, история не точная наука))))

Создавать темы 13-Мар-2014 13:26

[Профиль]  [ЛС] 

Astrolog

Стаж: 5 лет 4 месяца

Сообщений: 213

Симпатии: 27

794448Astrolog, а фильм не имеет никакого отношения к истории, он снят по одноименному историческому роману
Чуете однокоренные в выделенном?))
Ничего не имею против того, что фильм "упустил" в своём качественном содержании, может на то была ставка (в чём доля сомнений). Напротив, то, что могла получить эта кинокартина, будучи оформлена в надлежащем соответствии.
А что до истории?.. Так вот она, на фото XIX века без догадок и домыслов: уклад мусульманских стран средневековья не менялся столетиями (а в некоторых странах не изменился до сих пор) - про оформление я, Kit, не про содержание, которое по Гордону неприкосновенно. ;)

Создавать темы 13-Мар-2014 14:54

[Профиль]  [ЛС] 
Показать сообщения:    
Ответить на тему

Текущее время: 19-Окт 10:26

Часовой пояс: UTC + 5



Вы не можете начинать темы
Вы не можете отвечать на сообщения
Вы не можете редактировать свои сообщения
Вы не можете удалять свои сообщения
Вы не можете голосовать в опросах
Вы не можете прикреплять файлы к сообщениям
Вы не можете скачивать файлы