Лекарь: Ученик Авиценны / The Physician (Филипп Штёльцль) [2013, Драма, Приключения, WEB-DLRip] | (iTunes)

Ответить на тему
 

Suxrob89 ®

Стаж: 7 лет

Сообщений: 933

Симпатии: 564

-Лекарь: Ученик Авиценны / The Physician-"Через пески времени к свету" - Год выпуска: 2013
Производство: Германия, UFA Cinema, ARD Degeto Film, Beta Cinema
Жанр: Драма, Приключения
Перевод: Дублированный (iTunes)
Субтитры: Отсутствуют
Продолжительность: 02:34:41-Режиссер: Филипп Штёльцль
Продюсер: Вульф Бауэр, Нико Хофманн, Ахмед Абуноум-Актеры: Том Пэйн, Бен Кингсли, Эмма Ригби, Стеллан Скарсгард, Оливье Мартинес, Элиас ЭмБарек, Майкл Джибсон, Стэнли Таунсенд, Майкл Маркус Морган, Адам Томас Райт-Описание фильма: Англия, XI век. Мать десятилетнего Роба Коула умирает в страшных мучениях: никто не знает ни природы её болезни, ни лекарства против неё. Маленький Роб, потрясенный до глубины души, во что бы то ни стало стремится разгадать эту тайну.
Ему суждено пройти долгий путь, от Англии до Персии, его учителями становятся сначала обыкновенный шарлатан Барбер, а потом — великий лекарь Авиценна. Мудрый учитель видит в Робе необыкновенный талант к медицине, но советует ему не спешить делать вещи, которые не соответствуют веку. Но Роб ни перед чем не останавливается в своем желании научиться спасать людей от смерти, и над его собственной жизнью нависает угроза, ведь он дважды пошел против предрассудков: использовал для научных исследований тело человека и полюбил женщину, отданную в жены другому.- -Дата мировой премьеры: 25 декабря 2013
Дата российской премьеры: 6 февраля 2014, «Люксор»-Качество: WEB-DLRip
Формат: AVI
Видео: XviD, 1 937 kb/s, 720x304, 24.000 fps
Аудио: AC3, 384 kb/s, 6 ch, 48.0 KHz

Media info

E:\Lekar.Uchenik.Aviacenna.2014.D.WEB-DLRip.avi
   General
      Complete name : E:\Lekar.Uchenik.Aviacenna.2014.D.WEB-DLRip.avi
      Format : AVI
      Format/Info : Audio Video Interleave
      Format profile : OpenDML
      File size : 2.52 GiB
      Duration : 2h 34mn
      Overall bit rate : 2 332 Kbps
      Writing application : VirtualDubMod 1.5.10.2 (build 2540/release)
      Writing library : VirtualDubMod build 2540/release
   Video #0
      ID : 0
      Format : MPEG-4 Visual
      Format profile : Advanced [email protected]
      Format settings, BVOP : 2
      Format settings, QPel : No
      Format settings, GMC : No warppoints
      Format settings, Matrix : Custom
      Codec ID : XVID
      Codec ID/Hint : XviD
      Duration : 2h 34mn
      Bit rate : 1 937 Kbps
      Width : 720 pixels
      Height : 304 pixels
      Display aspect ratio : 2.35:1
      Frame rate : 24.000 fps
      Color space : YUV
      Chroma subsampling : 4:2:0
      Bit depth : 8 bits
      Scan type : Progressive
      Compression mode : Lossy
      Bits/(Pixel*Frame) : 0.369
      Stream size : 2.09 GiB (83%)
      Writing library : XviD 1.2.1 (UTC 2008-12-04)
   Audio #1
      ID : 1
      Format : AC-3
      Format/Info : Audio Coding 3
      Mode extension : CM (complete main)
      Format settings, Endianness : Big
      Codec ID : 2000
      Duration : 2h 34mn
      Bit rate mode : Constant
      Bit rate : 384 Kbps
      Channel(s) : 6 channels
      Channel positions : Front: L C R, Side: L R, LFE
      Sampling rate : 48.0 KHz
      Bit depth : 16 bits
      Compression mode : Lossy
      Stream size : 425 MiB (16%)
      Alignment : Split accross interleaves
      Interleave, duration : 42 ms (1.00 video frame)
      Interleave, preload duration : 500 ms

Скриншоты

Создавать темы 08-Мар-2014 11:02

[Профиль]  [ЛС] 

zexx

Стаж: 4 года

Сообщений: 10

где сид!??15 часов ждём уже...

Создавать темы 09-Мар-2014 18:03

[Профиль]  [ЛС] 
Показать сообщения:    
Ответить на тему

Текущее время: 23-Авг 17:08

Часовой пояс: UTC + 5



Вы не можете начинать темы
Вы не можете отвечать на сообщения
Вы не можете редактировать свои сообщения
Вы не можете удалять свои сообщения
Вы не можете голосовать в опросах
Вы не можете прикреплять файлы к сообщениям
Вы не можете скачивать файлы