Ранчо Халява / Buck Wild (Тайлер Глодт / Tyler Glodt ) [2014, США, ужасы, комедия, WEB-DLRip] MVO (ViruseProject)

Ответить на тему
 

СтАсИкОс ®

Стаж: 6 лет 8 месяцев

Сообщений: 314

Симпатии: 20

Ранчо Халява / Buck Wild-- Страна: США
Жанр: ужасы, комедия
Год выпуска: 2014
Продолжительность: 01:35:28
Перевод: Любительский (многоголосый закадровый) (ViruseProject)
Cубтитры: нет
Оригинальная аудиодорожка: нет
Режиссер: Тайлер Глодт / Tyler Glodt--В ролях: Мэг Чионни, Джо Стивенс, Амелия Мейерс, Мэттью Альбрехт, Марк Форд, Джаррод Пистилли, Тайлер Глодт, Дрю Локвуд, Исаак Харрисон и др.--Описание: Крейг Томпсон вытягивает своих друзей: Тома, Лэнса и кузена Джерри на охоту на ранчо "ХАЛЯВА", которое находится у чёрта на куличках. Планируя не только отдохнуть по человечески, но и раскрыть своим друзьям, что он хочет жениться на девушке с которой живет уже 6 лет. В итоге выясняется, что девушка Крейга еще та "гулящая особа", так еще и постоянно изменяла ему с лучшим другом - Лэнсом. И пока у них идет своя комедийная драма, вокруг быстрым ходом распространяется вирус "Чупакабра", который превращает всех жителей ближайшей деревни и соседних ранчо в нежить/зомби. После чего ребятишкам приходится выживать в этой кровавой бане юмора!--ВНИМАНИЕ! НЕНОРМАТИВНАЯ ЛЕКСИКА И МОРЕ КРОВИ!!!
Лицам не достигшим 18 лет и тем, кто не переваривает нецензурные выражение и насилие - категорически не рекомендуется смотреть
 --Релиз:
Качество видео: WEB-DLRip
Формат видео: AVI
Видео кодек: XviD
Аудио кодек: AC3
Видео: 720x304 (2.37:1), 23.976 fps, XviD build 50 ~1797 kbps avg, 0.34 bit/pixel
Аудио: 48 kHz, AC3 Dolby Digital, 3/2 (L,C,R,l,r) + LFE ch, ~384 kbps--Закадровое озвучание: Марина Видякина, Елена Емельянова, Алекс Викке, Алексей Кизуб, Дмитрий Кравченко, Дмитрий Иванов, Александр Федоров, Владислав Данилов
Перевод: МЕГАПЫХАРЬ и Ох!СТудия
Редакция перевода, монтаж, сведение звука, подготовка видео: Виталий Емельянов--

MediaInfo

General
Complete name : D:\Фильмы\Buck.Wild.2014.WEB-DL.ViruseProject.avi
Format : AVI
Format/Info : Audio Video Interleave
File size : 1.46 GiB
Duration : 1h 35mn
Overall bit rate : 2 191 Kbps
Writing application : VirtualDubMod 1.5.10.2 (build 2540/release)
Writing library : VirtualDubMod build 2540/release
Video #0
ID : 0
Format : MPEG-4 Visual
Format profile : Advanced [email protected]
Format settings, BVOP : 1
Format settings, QPel : No
Format settings, GMC : No warppoints
Format settings, Matrix : Default (MPEG)
Codec ID : XVID
Codec ID/Hint : XviD
Duration : 1h 35mn
Bit rate : 1 798 Kbps
Width : 720 pixels
Height : 304 pixels
Display aspect ratio : 2.35:1
Frame rate : 23.976 fps
Color space : YUV
Chroma subsampling : 4:2:0
Bit depth : 8 bits
Scan type : Progressive
Compression mode : Lossy
Bits/(Pixel*Frame) : 0.343
Stream size : 1.20 GiB (82%)
Writing library : XviD 1.2.1 (UTC 2008-12-04)
Audio #1
ID : 1
Format : AC-3
Format/Info : Audio Coding 3
Mode extension : CM (complete main)
Format settings, Endianness : Big
Codec ID : 2000
Duration : 1h 35mn
Bit rate mode : Constant
Bit rate : 384 Kbps
Channel count : 6 channels
Channel positions : Front: L C R, Side: L R, LFE
Sampling rate : 48.0 KHz
Bit depth : 16 bits
Compression mode : Lossy
Stream size : 262 MiB (18%)
Alignment : Split accross interleaves
Interleave, duration : 42 ms (1.00 video frame)
Interleave, preload duration : 500 ms

Скриншоты







Последний раз редактировалось: СтАсИкОс (2014-04-06 11:27), всего редактировалось 1 раз

Создавать темы 08-Мар-2014 11:38

[Профиль]  [ЛС] 

wams84

Стаж: 6 лет 4 месяца

Сообщений: 12

кто смотрел, отпишитесь стоит качать?

Создавать темы 08-Мар-2014 15:03

[Профиль]  [ЛС] 

СтАсИкОс ®

Стаж: 6 лет 8 месяцев

Сообщений: 314

Симпатии: 20

Фильм-пародия на зомбикино с очень необычным юмором. Есть прикольные моменты, для одного раза самое то)

Создавать темы 08-Мар-2014 15:46

[Профиль]  [ЛС] 

Rustamchik9390

Стаж: 5 лет 4 месяца

Сообщений: 42

А как качество?

Создавать темы 08-Мар-2014 19:12

[Профиль]  [ЛС] 

СтАсИкОс ®

Стаж: 6 лет 8 месяцев

Сообщений: 314

Симпатии: 20

Rustamchik9390, WEB-DLRip, качество отличное, никакого дискомфорта при просмотре

Создавать темы 08-Мар-2014 20:04

[Профиль]  [ЛС] 

death

Стаж: 5 лет 6 месяцев

Сообщений: 39

Так себе,на 1 раз

Создавать темы 10-Мар-2014 22:04

[Профиль]  [ЛС] 

pct

Стаж: 6 лет 7 месяцев

Сообщений: 120

Симпатии: 12

Фильм ничего, но для публики помоложе.

Создавать темы 13-Мар-2014 20:08

[Профиль]  [ЛС] 

Alex2001

Стаж: 4 года 8 месяцев

Сообщений: 11

Не советую качать.... ban bz bz

Создавать темы 15-Мар-2014 21:22

[Профиль]  [ЛС] 

mc.choco

Стаж: 3 года 9 месяцев

Сообщений: 6

Симпатии: 1

норм кино по смеху чут не умер спс

Создавать темы 18-Мар-2014 21:03

[Профиль]  [ЛС] 

highlord!

Стаж: 6 лет 7 месяцев

Сообщений: 62

Симпатии: 1

дайте скорость плиис!

Создавать темы 03-Июн-2014 19:20

[Профиль]  [ЛС] 

hood1k

Стаж: 4 года 8 месяцев

Сообщений: 91

Симпатии: 3

837417дайте скорость плиис!
Стаж 3 года, 4 месяца и ты пишешь эту фразу: "дайте скорость плис"?! bu

Создавать темы 04-Июн-2014 10:10

[Профиль]  [ЛС] 
Показать сообщения:    
Ответить на тему

Текущее время: 20-Сен 19:42

Часовой пояс: UTC + 5



Вы не можете начинать темы
Вы не можете отвечать на сообщения
Вы не можете редактировать свои сообщения
Вы не можете удалять свои сообщения
Вы не можете голосовать в опросах
Вы не можете прикреплять файлы к сообщениям
Вы не можете скачивать файлы