Афера по-американски / American Hustle (Дэвид О. Расселл) [2013 г., драма, комедия, HDRip] MVO

Ответить на тему
 

Akmal89 ®

Стаж: 5 лет 8 месяцев

Сообщений: 237

Симпатии: 99

Афера по-американски / American Hustle-«Everyone Hustles To Survive»-- Год выпуска: 2013
Страна: США
Жанр: драма, комедия
Продолжительность: 02:13:09
Перевод: Профессиональный (многоголосый)[BaibaKo]-Режиссер: Дэвид О. Расселл-В ролях: Кристиан Бэйл, Брэдли Купер, Эми Адамс, Джереми Реннер, Дженнифер Лоуренс, Луис С.К., Джек Хьюстон, Майкл Пенья, Ши Уигхэм, Алессандро Нивола-Описание: В основе сюжета фильма реальная спецоперация, проводимая в конце 70-х — начале 80-х ФБР под кодовым названием Abscam. Она изначально была нацелена на расследование торговли краденым товаром. ФБР собиралось внедрить в преступную среду своих агентов под видом посредников, скупающих краденые шедевры для богатых коллекционеров Ближнего Востока. Впоследствии операция превратилась в изобличение коррупции на разных уровнях.--Рейтинг:- -Качество: HDRip
Формат: AVI
Видео: XviD, 1053 kb/s, 720x304, 23.976 fps
Аудио: AC3, 448 kb/s, 6 ch, 48.0 KHz
--

Media Info

D:\Torrents Downloads\Afera.po.Amerikanski.2013.P.HDRip.1400MB.[TAS-IX.NET].avi
General
Complete name : D:\Torrents Downloads\Afera.po.Amerikanski.2013.P.HDRip.1400MB.[TAS-IX.NET].avi
Format : AVI
Format/Info : Audio Video Interleave
File size : 1.46 GiB
Duration : 2h 18mn
Overall bit rate : 1 510 Kbps
Writing application : VirtualDubMod 1.5.10.2 (build 2540/release)
Writing library : VirtualDubMod build 2540/release
Video #0
ID : 0
Format : MPEG-4 Visual
Format profile : [email protected]
Format settings, BVOP : Yes
Format settings, QPel : No
Format settings, GMC : No warppoints
Format settings, Matrix : Custom
Codec ID : XVID
Codec ID/Hint : XviD
Duration : 2h 18mn
Bit rate : 1 053 Kbps
Width : 720 pixels
Height : 304 pixels
Display aspect ratio : 2.35:1
Frame rate : 23.976 fps
Resolution : 24 bits
Colorimetry : 4:2:0
Scan type : Progressive
Bits/(Pixel*Frame) : 0.201
Stream size : 1.02 GiB (70%)
Writing library : XviD 1.2.1 (UTC 2008-12-04)
Audio #1
ID : 1
Format : AC-3
Format/Info : Audio Coding 3
Codec ID : 2000
Duration : 2h 18mn
Bit rate mode : Constant
Bit rate : 448 Kbps
Channel(s) : 6 channels
Channel positions : Front: L C R, Surround: L R, LFE
Sampling rate : 48.0 KHz
Stream size : 442 MiB (30%)
Alignment : Split accross interleaves
Interleave, duration : 42 ms (1.00 video frame)
Interleave, preload duration : 500 ms

Скриншоты


Создавать темы 09-Мар-2014 23:20

[Профиль]  [ЛС] 

arojpg

Стаж: 4 года 5 месяцев

Сообщений: 5

В последнее время просто шквал из потрясающих фильмов!!!
Спс за релиз)

Создавать темы 10-Мар-2014 20:02

[Профиль]  [ЛС] 

jas81

Стаж: 4 года

Сообщений: 108

Симпатии: 7

скачавшых много но отзывов почтинету.

Создавать темы 16-Мар-2014 15:42

[Профиль]  [ЛС] 

AbiJan

Стаж: 6 лет 5 месяцев

Сообщений: 80

Симпатии: 12

Фильм идеален для людей любящих актерскую игру и сюжет. Два с лишним часа пройдут не заметно.

Создавать темы 10-Апр-2014 21:30

[Профиль]  [ЛС] 

Артемий

Стаж: 5 лет 2 месяца

Сообщений: 96

Симпатии: 6

810269Фильм идеален для людей любящих актерскую игру и сюжет. Два с лишним часа пройдут не заметно.
Да, вот только безнадёжный финал портит всё впечатление. С таким хорошим сценарием и составом могли бы сделать концовку не настолько наивной...

Создавать темы 11-Апр-2014 15:39

[Профиль]  [ЛС] 

flint

Стаж: 5 лет 2 месяца

Сообщений: 18

Тягомотина полная!

Создавать темы 12-Апр-2014 22:33

[Профиль]  [ЛС] 
Показать сообщения:    
Ответить на тему

Текущее время: 20-Ноя 09:07

Часовой пояс: UTC + 5



Вы не можете начинать темы
Вы не можете отвечать на сообщения
Вы не можете редактировать свои сообщения
Вы не можете удалять свои сообщения
Вы не можете голосовать в опросах
Вы не можете прикреплять файлы к сообщениям
Вы не можете скачивать файлы