Гравитация / Gravity (Альфонсо Куарон / Alfonso Cuaron) [2013 г., триллер, драма, BDRemux 1080p]

Ответить на тему
 

razor2011 ®

Стаж: 5 лет 3 месяца

Сообщений: 227

Симпатии: 37

Гравитация / Gravity«Не отпускай»- Год выпуска: 2013
Страна: США, Великобритания
Жанр: триллер, драма
Продолжительность: 01:30:13
Перевод: Профессиональный (дублированный) iTunes Russia
оригинальные чаптеры: как на Blu-ray
Субтитры: есть-Режиссер: Альфонсо Куарон / Alfonso Cuaron
сценарий: Альфонсо Куарон, Хонас Куарон, Джордж Клуни
продюсер: Альфонсо Куарон, Дэвид Хейман, Кристофер ДеФариа, ...
оператор: Эммануэль Любецки
композитор: Стивен Прайс
художник: Энди Николсон, Марк Скратон, Яни Темиме, ...
монтаж: Альфонсо Куарон, Марк Сэнгер-В ролях: Сандра Буллок, Джордж Клуни, Эд Харрис, Орто Игнатиуссен, Пол Шарма, Эми Уоррен, Башер Саваж.
Описание: Доктор Райан Стоун , блестящий специалист в области медицинского инжиниринга, отправляется в свою первую космическую миссию под командованием ветерана астронавтики Мэтта Ковальски, для которого этот полет — последний перед отставкой. Но во время, казалось бы, рутинной работы за бортом случается катастрофа. Шаттл уничтожен, а Стоун и Ковальски остаются совершенно одни; они находятся в связке друг с другом, и все, что они могут, — это двигаться по орбите в абсолютно черном пространстве без всякой связи с Землей и какой-либо надежды на спасение.-Доп. информация:
| | | -Качество: BDRemux
Формат: BDMV / M2TS
Видео кодек: MPEG-4 AVC
Аудио кодек: AC3
Видео: 1920x1080 at 23.976 fps, MPEG-4 AVC, ~21816 kbps avg
Aудио#1: 48 kHz, AC3, 3/2 (L,C,R,l,r) + LFE ch, ~384.00 kbps avg | Русский (дублированный) iTunes Russia
Aудио#2: 48 kHz/24-bit, DTS-HD MA 5.1, ~2369.00 kbps avg | Английский (оригинал)
Субтитры: Russian (Forced, iTunes), Russian (iTunes), Ukrainian (iTunes), English

MI

D:\Гравитация / GravityBDRemux\BDMV\STREAM\00000.m2ts
General #1
ID : 1 (0x1)
Complete name : D:\Гравитация / GravityBDRemux\BDMV\STREAM\00000.m2ts
Format : BDAV
Format/Info : Blu-ray Video
File size : 16.6 GiB
Duration : 1h 30mn
Overall bit rate mode : Variable
Overall bit rate : 26.1 Mbps
Maximum Overall bit rate : 35.5 Mbps
Video #4113
ID : 4113 (0x1011)
Menu ID : 1 (0x1)
Format : AVC
Format/Info : Advanced Video Codec
Format profile : [email protected]
Format settings, CABAC : Yes
Format settings, ReFrames : 2 frames
Codec ID : 27
Duration : 1h 30mn
Bit rate mode : Variable
Bit rate : 23.1 Mbps
Width : 1 920 pixels
Height : 1 080 pixels
Display aspect ratio : 16:9
Frame rate : 23.976 fps
Color space : YUV
Chroma subsampling : 4:2:0
Bit depth : 8 bits
Scan type : Progressive
Bits/(Pixel*Frame) : 0.465
Stream size : 14.7 GiB (89%)
Audio #4352
ID : 4352 (0x1100)
Menu ID : 1 (0x1)
Format : AC-3
Format/Info : Audio Coding 3
Mode extension : CM (complete main)
Format settings, Endianness : Big
Codec ID : 129
Duration : 1h 30mn
Bit rate mode : Constant
Bit rate : 384 Kbps
Channel(s) : 6 channels
Channel positions : Front: L C R, Side: L R, LFE
Sampling rate : 48.0 KHz
Bit depth : 16 bits
Compression mode : Lossy
Stream size : 250 MiB (1%)
Audio #4353
ID : 4353 (0x1101)
Menu ID : 1 (0x1)
Format : DTS
Format/Info : Digital Theater Systems
Format profile : MA / Core
Muxing mode : Stream extension
Codec ID : 134
Duration : 1h 30mn
Bit rate mode : Variable
Bit rate : 1 561 Kbps / 1 510 Kbps
Channel(s) : 6 channels
Channel positions : Front: L C R, Side: L R, LFE
Sampling rate : 48.0 KHz
Bit depth : 16 bits
Compression mode : Lossless / Lossy
Text #4608
ID : 4608 (0x1200)
Menu ID : 1 (0x1)
Format : PGS
Codec ID : 144
Text #4609
ID : 4609 (0x1201)
Menu ID : 1 (0x1)
Format : PGS
Codec ID : 144
Delay relative to video : 13s 764ms
Text #4610
ID : 4610 (0x1202)
Menu ID : 1 (0x1)
Format : PGS
Codec ID : 144
Delay relative to video : 13s 764ms
Text #4611
ID : 4611 (0x1203)
Menu ID : 1 (0x1)
Format : PGS
Codec ID : 144
Delay relative to video : 13s 805ms

Скриншоты

[IMG]



Последний раз редактировалось: razor2011 (2014-03-13 07:37), всего редактировалось 1 раз

Создавать темы 10-Мар-2014 14:17

[Профиль]  [ЛС] 

Grock

Стаж: 6 лет 10 месяцев

Сообщений: 637

Симпатии: 113

razor2011, Скрины и постер залейте пож-ста в нашу галерею

Создавать темы 13-Мар-2014 01:01

[Профиль]  [ЛС] 

razor2011 ®

Стаж: 5 лет 3 месяца

Сообщений: 227

Симпатии: 37

готово!!!

Создавать темы 13-Мар-2014 07:38

[Профиль]  [ЛС] 

Solo Inter

Стаж: 6 лет 7 месяцев

Сообщений: 44

Дайте докачать не много осталось,встаньте на раздачу народ

Создавать темы 03-Апр-2014 20:12

[Профиль]  [ЛС] 

Solo Inter

Стаж: 6 лет 7 месяцев

Сообщений: 44

200 метров осталось до раздай уже. 4 неделю качаю

Создавать темы 14-Апр-2014 17:36

[Профиль]  [ЛС] 

Dnic

Стаж: 4 года

Сообщений: 3

Дайте скорости пожалуйста.
Уже три недели качаю а скачано только 41%

Создавать темы 22-Апр-2014 20:06

[Профиль]  [ЛС] 

BUMER

Стаж: 4 года 10 месяцев

Сообщений: 22

уважаемые раздающие либо скачали и удалили либо дайте скорости а то как то не очень то получается сижу провас тут плохо думаю, не жмитесь раздайте как вам раздавали а то фильмы будут сматреть мои правнуки с такой скоростью закачки

Создавать темы 14-Июн-2014 20:52

[Профиль]  [ЛС] 

voutcast

Стаж: 4 года 10 месяцев

Сообщений: 2

Уже четвертую неделю качаю. Дайте немного скорости плиз.

Создавать темы 15-Июн-2014 04:59

[Профиль]  [ЛС] 

Saken

Стаж: 2 года 8 месяцев

Сообщений: 20

Симпатии: 38

Качаю больше года, дайте раздачу плиз.

Создавать темы 27-Ноя-2016 20:08

[Профиль]  [ЛС] 
Показать сообщения:    
Ответить на тему

Текущее время: 17-Дек 11:10

Часовой пояс: UTC + 5



Вы не можете начинать темы
Вы не можете отвечать на сообщения
Вы не можете редактировать свои сообщения
Вы не можете удалять свои сообщения
Вы не можете голосовать в опросах
Вы не можете прикреплять файлы к сообщениям
Вы не можете скачивать файлы