Кей / Key project / K (Судзуки Синго) [TV] [13 из 13] [без хардсаба] [RUS(ext), JAP+SUB] [2012 г., приключения, мистика, дзёсэй, BDRip] [720p]

Ответить на тему
 

MeiDoCorpse ®

Стаж: 4 года 5 месяцев

Сообщений: 222

Симпатии: 14

- Год выпуска: 2013
Страна: Япония
Жанр: приключения, мистика, дзёсэй
Продолжительность: ТВ | 13 эп. по 25 мин.-Режиссёр: Судзуки Синго
Сценарий: Фурухаси Хидэюки
Студия: Go Hands-Описание:
Миром будущего правят молодежные банды, члены которых обладают сверхъестественными способностями. Их боятся и власти, и традиционные гангстеры, впрочем, не отказываясь от сотрудничества. Банды различают по именам и цветам стихии, которой владеют тамошние бойцы. И вот, пока в городе кипит разборка между «красными» и «синими», на райском острове, где стоит школа Асинака, 17-летний Ясиро Исана по кличке Сиро спокойно обедал в компании своей кошки. Но стоило парню тронуться в путь - началось полное Зазеркалье: за ним погнались какие-то гопники, потом явился странный меченосец, Кошка превратилась в обнаженную красотку, а сам герой узнал, что у него есть близнец – серийный убийца, с которым очень хотят пообщаться члены Красной Банды и много кто еще!
Чем дальше, тем чудесатее – говорила героиня другой похожей истории. Вот и Сиро, такой молодой и красивый, не захотел умирать раньше времени и непонятно за что, а для предупреждения печального исхода надо разобраться с загадкой собственной личности. То, что симпатичный блондин – парень непростой, понятно и слепому, но как можно быть одновременно и веселым школьником, и жутковатым Седьмым Владыкой? В общем, пора что-то решать, а то одинокий самурай по кличке Черный Пес обедом кормить больше не будет!
© Hollow, World Art-Cсылки: Официальная страница || AniDB || World Art || MAL-Качество: BDRip
Энкод: Winter
Контейнер: mkv
Тип видео: Без хардсаба
Наличие линковки: Нет
Видео: x264 (Hi10p), 1280x720, ~4200 Kbps, 23.976 fps
Аудио: Japanese, Vorbis, 48000Hz, ~256 Kbps, 2ch, в составе контейнера
Аудио: Russian, AC3, 48000Hz, ~192 Kbps, 2ch, внешними файлами | двухголосая от FruKt & Sonata
Субтитры: Russian, ASS, внешними файлами | перевод от Antravoco-

Список эпизодов

01. Knight
02. Kitten
03. Kitchen
04. Knock-on Effect
05. Knife
06. Karma
07. Key
08. Kindling
09. Knell
10. Kaleidoscope
11. Killer
12. Adolf K. Weismann
13. King

Скриншоты

Подробные тех. данные

General
Unique ID : 219565065453234267975702559371333380410 (0xA52EB1849D13EFD1BD09B6D84AAEA93A)
Complete name : E:\K [BD] [720p]\[Winter] K 01 [BDrip 1280x720 x264 Vorbis].mkv
Format : Matroska
Format version : Version 2
File size : 907 MiB
Duration : 25mn 59s
Overall bit rate mode : Variable
Overall bit rate : 4 881 Kbps
Encoded date : UTC 2013-03-09 13:31:17
Writing application : mkvmerge v2.9.8 ('C'est le bon') built on Aug 13 2009 12:49:06
Writing library : libebml v0.7.7 + libmatroska v0.8.1
Video
ID : 1
Format : AVC
Format/Info : Advanced Video Codec
Format profile : High [email protected]
Format settings, CABAC : Yes
Format settings, ReFrames : 9 frames
Codec ID : V_MPEG4/ISO/AVC
Duration : 25mn 59s
Bit rate : 4 528 Kbps
Width : 1 280 pixels
Height : 720 pixels
Display aspect ratio : 16:9
Frame rate mode : Constant
Frame rate : 23.976 fps
Color space : YUV
Chroma subsampling : 4:2:0
Bit depth : 10 bits
Scan type : Progressive
Bits/(Pixel*Frame) : 0.205
Stream size : 842 MiB (93%)
Writing library : x264 core 125 r2200 999b753
Encoding settings : cabac=1 / ref=9 / deblock=1:-2:-2 / analyse=0x3:0x133 / me=umh / subme=9 / psy=1 / psy_rd=0.90:0.00 / mixed_ref=1 / me_range=24 / chroma_me=1 / trellis=2 / 8x8dct=1 / cqm=0 / deadzone=21,11 / fast_pskip=1 / chroma_qp_offset=-2 / threads=6 / lookahead_threads=1 / sliced_threads=0 / nr=0 / decimate=0 / interlaced=0 / bluray_compat=0 / constrained_intra=0 / bframes=8 / b_pyramid=2 / b_adapt=2 / b_bias=0 / direct=1 / weightb=1 / open_gop=0 / weightp=2 / keyint=250 / keyint_min=23 / scenecut=40 / intra_refresh=0 / rc=crf / mbtree=0 / crf=16.0 / qcomp=0.70 / qpmin=9 / qpmax=40 / qpstep=4 / ip_ratio=1.40 / pb_ratio=1.30 / aq=1:0.90
Default : No
Forced : No
Audio
ID : 2
Format : Vorbis
Format settings, Floor : 1
Codec ID : A_VORBIS
Duration : 25mn 59s
Bit rate mode : Variable
Bit rate : 256 Kbps
Channel count : 2 channels
Sampling rate : 48.0 KHz
Compression mode : Lossy
Stream size : 47.6 MiB (5%)
Writing library : libVorbis (Schaufenugget) (20101101 (Schaufenugget))
Language : Japanese
Default : Yes
Forced : No

Создавать темы 10-Мар-2014 19:51

[Профиль]  [ЛС] 

Азиз87

Стаж: 4 года 11 месяцев

Сообщений: 752

Симпатии: 143

Жанр: приключения, мистика, дзёсэй - Дайте пояснения пользователям о характере жанра, т.к. в оформлении ХД релиза Аглена не встретил.

Создавать темы 10-Мар-2014 20:21

[Профиль]  [ЛС] 

MeiDoCorpse ®

Стаж: 4 года 5 месяцев

Сообщений: 222

Симпатии: 14

Дзёсэй (яп. 女性 дзёсэй?, букв. «женщина»), также рэдису (レディース, рэди:су) или рэдикоми (レディコミ, рэдикоми, калька с англ. ladies’ comics, букв. «дамские комиксы») — аниме и манга, рассчитанные на особую целевую аудиторию — молодых женщин от 18 лет и старше.
Азиз87, Жанры прописываю в соответствии с AniDB

Создавать темы 11-Мар-2014 05:04

[Профиль]  [ЛС] 

bl4ckSun

Стаж: 4 года

Сообщений: 48

Симпатии: 1

может кто нибудь вернуться на раздачу?

Создавать темы 04-Ноя-2014 12:51

[Профиль]  [ЛС] 

LikeSmile

Стаж: 4 года 5 месяцев

Сообщений: 298

Симпатии: 48

bl4ckSun, вроде валяется на компе, как приду домой - гляну, отпишу

Создавать темы 04-Ноя-2014 16:41

[Профиль]  [ЛС] 

bl4ckSun

Стаж: 4 года

Сообщений: 48

Симпатии: 1

LikeSmile, ну вернулся бы к раздаче ))чо ушел то

Создавать темы 05-Ноя-2014 09:16

[Профиль]  [ЛС] 
Показать сообщения:    
Ответить на тему

Текущее время: 24-Окт 07:25

Часовой пояс: UTC + 5



Вы не можете начинать темы
Вы не можете отвечать на сообщения
Вы не можете редактировать свои сообщения
Вы не можете удалять свои сообщения
Вы не можете голосовать в опросах
Вы не можете прикреплять файлы к сообщениям
Вы не можете скачивать файлы