Школа Мертвецов [ТВ] / Gakuen Mokushiroku / Highschool of the Dead (Араки Тэцуро) [TV] [12 из 12] [без хардсаба] [RUS(ext), JAP+SUB] [2010 г., приключения, ужасы, этти, BDRip] [720p]

Ответить на тему
 

LikeSmile ®

Стаж: 4 года 5 месяцев

Сообщений: 298

Симпатии: 48

- Год выпуска: 2010
Страна: Япония
Жанр: приключения, ужасы, этти
Продолжительность: 12 эп. по 24 мин.--Перевод:
• русские субтитры от Antravoco (полные/вспомогательные)-Озвучка:
• одноголосая (жен.) от Persona99 (GetSmart)
• одноголосая (муж.) от Shachiburi (AniMedia)--Режиссёр: Араки Тэцуро
Автор оригинала: Сато Дайсукэ
Студия: --Дополнительную информацию можете найти: AniDB || World Art || MAL--Описание: Страшная болезнь, превращающая людей в зомби, вырвалась на свободу, и мир рухнул в одночасье. Беда неслышно подкралась и к частной академии Фудзими, лишь немногие школьники и учителя смогли распознать ее и бежать от толпы живых мертвецов. Дороги выживших разошлись. В центре сюжета – судьба тесной группы, невольный лидер которой, 17-летний Такаси Комуро, готов на все, чтобы спасти подругу детства Рэй Миямото. По пути на волю к ним присоединяются другие ученики – президент клуба кэндо Саэко Бусудзима, фанат оружия Кота Хирано и самозваный гений Сая Такаги. Пополнив ряды еще и школьной медсестрой Сидзукой Марикавой, беглецы вырываются в город – а там все только хуже.
Конец света быстро срывает маски, показывая, кто держится друзей, а кто готов толкнуть падающего; кто хочет просто выжить, а кто желает еще и половить рыбку в мутных водах Апокалипсиса. Такаси и компания вскоре убеждаются, что временами опаснее всего не зомби, а такие же «товарищи по несчастью». Героям придется пройти ускоренный курс суровой науки выживания, чтобы найти родных и близких и не потерять надежду. Надо жить дальше, а надежда будет всегда!
© Hollow, World Art--Качество: BDRip
Энкод: Winter
Формат: mkv
Видео: x264 (Hi10p), 1280x720, ~3500 Kbps, 23.976 fps
Аудио #1: JAP, Vorbis, 48000Hz, ~256 Kbps, 2ch - в составе контейнера
Аудио #2: RUS, AC-3, 48000Hz, ~192 Kbps, 2ch - внешними файлами
Аудио #3: RUS, AC-3, 48000Hz, ~192 Kbps, 2ch - внешними файлами--

Список эпизодов

01. «Spring of the Dead»
02. «Escape from the Dead»
03. «Democracy Under the Dead»
04. «Running in the Dead»
05. «Streets of the Dead»
06. «In the Dead of the Night»
07. «Dead Night and the Dead Ruck»
08. «The Dead Way Home»
09. «The Sword and Dead»
10. «The Dead`s House Rules»
11. «Dead Storm Rising»
12. «All Dead`s Attack»
--

Подробное MI

General
Unique ID                                : 235548522222306791643305676411043359733 (0xB134FEC76B902EFBA48FFC4DFB00ABF5)
Complete name                            : G:\Anime [Скачано с торрентов]\High School of the Dead [BD] [720p]\[Winter] High School of the Dead 01 [BDrip 1280x720 x264 Vorbis].mkv
Format                                   : Matroska
Format version                           : Version 2
File size                                : 740 MiB
Duration                                 : 23mn 40s
Overall bit rate mode                    : Variable
Overall bit rate                         : 4 369 Kbps
Encoded date                             : UTC 2012-11-06 04:10:27
Writing application                      : mkvmerge v2.9.7 ('Tenderness') built on Jul  1 2009 18:43:35
Writing library                          : libebml v0.7.7 + libmatroska v0.8.1
Video
ID                                       : 1
Format                                   : AVC
Format/Info                              : Advanced Video Codec
Format profile                           : High [email protected]
Format settings, CABAC                   : Yes
Format settings, ReFrames                : 9 frames
Codec ID                                 : V_MPEG4/ISO/AVC
Duration                                 : 23mn 40s
Bit rate                                 : 4 026 Kbps
Width                                    : 1 280 pixels
Height                                   : 720 pixels
Display aspect ratio                     : 16:9
Frame rate mode                          : Constant
Frame rate                               : 23.976 fps
Color space                              : YUV
Chroma subsampling                       : 4:2:0
Bit depth                                : 10 bits
Scan type                                : Progressive
Bits/(Pixel*Frame)                       : 0.182
Stream size                              : 682 MiB (92%)
Writing library                          : x264 core 125 r2200 999b753
Encoding settings                        : cabac=1 / ref=9 / deblock=1:-2:-2 / analyse=0x3:0x133 / me=umh / subme=9 / psy=1 / psy_rd=0.90:0.00 / mixed_ref=1 / me_range=24 / chroma_me=1 / trellis=2 / 8x8dct=1 / cqm=0 / deadzone=21,11 / fast_pskip=1 / chroma_qp_offset=-2 / threads=6 / lookahead_threads=1 / sliced_threads=0 / nr=0 / decimate=0 / interlaced=0 / bluray_compat=0 / constrained_intra=0 / bframes=8 / b_pyramid=2 / b_adapt=2 / b_bias=0 / direct=1 / weightb=1 / open_gop=0 / weightp=2 / keyint=250 / keyint_min=23 / scenecut=40 / intra_refresh=0 / rc=crf / mbtree=0 / crf=15.7 / qcomp=0.70 / qpmin=9 / qpmax=40 / qpstep=4 / ip_ratio=1.40 / pb_ratio=1.30 / aq=1:0.90
Default                                  : Yes
Forced                                   : No
Audio
ID                                       : 2
Format                                   : Vorbis
Format settings, Floor                   : 1
Codec ID                                 : A_VORBIS
Duration                                 : 23mn 40s
Bit rate mode                            : Variable
Bit rate                                 : 256 Kbps
Channel(s)                               : 2 channels
Sampling rate                            : 48.0 KHz
Compression mode                         : Lossy
Stream size                              : 43.3 MiB (6%)
Writing library                          : libVorbis (Schaufenugget) (20101101 (Schaufenugget))
Language                                 : Japanese
Default                                  : Yes
Forced                                   : No
--Залито по просьбе Alex_38

Создавать темы 10-Мар-2014 21:16

[Профиль]  [ЛС] 

LikeSmile ®

Стаж: 4 года 5 месяцев

Сообщений: 298

Симпатии: 48

Скорость будет, после того, как скачают эту раздачу

Создавать темы 12-Мар-2014 10:41

[Профиль]  [ЛС] 

knyaz31337

Стаж: 6 лет 5 месяцев

Сообщений: 396

Симпатии: 20

Когда уже 2-ой сезон будет...

Создавать темы 12-Мар-2014 13:07

[Профиль]  [ЛС] 

Fanky

Стаж: 5 лет 7 месяцев

Сообщений: 141

knyaz31337,
Никогда

Создавать темы 12-Мар-2014 14:22

[Профиль]  [ЛС] 

Vergil

Стаж: 6 лет 3 месяца

Сообщений: 689

Fanky, пессимист

Создавать темы 13-Мар-2014 12:01

[Профиль]  [ЛС] 

LikeSmile ®

Стаж: 4 года 5 месяцев

Сообщений: 298

Симпатии: 48

По возможности, не ограничивайте отдачу...

Создавать темы 13-Мар-2014 15:57

[Профиль]  [ЛС] 

Fanky

Стаж: 5 лет 7 месяцев

Сообщений: 141

Vergil,
Реалист! На крайняк мангу почитать можно.

Создавать темы 13-Мар-2014 21:06

[Профиль]  [ЛС] 

Kyon

Стаж: 6 лет 5 месяцев

Сообщений: 19

С мангой тоже все печально, она то выходит то не выходит.

Создавать темы 24-Мар-2014 15:26

[Профиль]  [ЛС] 

Rambotnik

Стаж: 6 лет 6 месяцев

Сообщений: 1274

Симпатии: 81

Могу поделиться озвучкой от кубы, ближе к концу недели, если есть желание обновить раздачу.

Создавать темы 24-Мар-2014 17:43

[Профиль]  [ЛС] 

LikeSmile ®

Стаж: 4 года 5 месяцев

Сообщений: 298

Симпатии: 48

801212Могу поделиться озвучкой от кубы, ближе к концу недели, если есть желание обновить раздачу.
Если зальете, то смогу прикрепить ссылку к релизу, в раздачу вшивать не буду. с меня эти 8+Гб никак за неделю стянуть не могут -_-

Создавать темы 24-Мар-2014 19:56

[Профиль]  [ЛС] 

LikeSmile ®

Стаж: 4 года 5 месяцев

Сообщений: 298

Симпатии: 48

Если не видит меня, юзайте этот ip:port - [2001:0:5e9e:3186:bc:d8e3:c12e:6399]:50786

Создавать темы 02-Апр-2014 22:11

[Профиль]  [ЛС] 

Abdurahimov

Стаж: 4 года

Сообщений: 2

я не могу зделать русские у меня толка японские как это исправлять

Создавать темы 12-Фев-2015 19:14

[Профиль]  [ЛС] 

Азиз87

Стаж: 4 года 11 месяцев

Сообщений: 752

Симпатии: 143

919384я не могу зделать русские у меня толка японские как это исправлять
https://tas-ix.net/viewtopic.php?t=79155

Создавать темы 12-Фев-2015 19:30

[Профиль]  [ЛС] 

Aler Gebluar

Стаж: 3 года 11 месяцев

Сообщений: 26

Симпатии: 11

Спосиба тебе LikeSmile за то что Школа Мертвецов раздаёш в отличной скорости благодарен + в репу

Создавать темы 24-Сен-2015 21:24

[Профиль]  [ЛС] 

lone.wolf

Стаж: 2 года 6 месяцев

Сообщений: 8

как мне воспроизвести русскую озвучку, у меня не получаеться(((((( ?????

Создавать темы 16-Окт-2015 21:18

[Профиль]  [ЛС] 
Показать сообщения:    
Ответить на тему

Текущее время: 24-Окт 09:12

Часовой пояс: UTC + 5



Вы не можете начинать темы
Вы не можете отвечать на сообщения
Вы не можете редактировать свои сообщения
Вы не можете удалять свои сообщения
Вы не можете голосовать в опросах
Вы не можете прикреплять файлы к сообщениям
Вы не можете скачивать файлы