Джефф Данэм: Контролируемый хаос / Jeff Dunham: Controlled Chaos / (Русские субтитры) [2011 г., Stand-up comedy, чревовещание, DVDRip]

Ответить на тему
 

landgrafische ®

Стаж: 4 года 7 месяцев

Сообщений: 11

Джефф Данэм: Контролируемый хаос / Jeff Dunham: Controlled Chaos- Год: 2011
Страна: USA
Жанр: Stand-up comedy, чревовещание
Продолжительность: 01:37:00
Перевод: Русские субтитры [kriska79]
Русские субтитры: да-Описание: Отличный чревовещатель и большой мастер разговорного жанра, Джефф Данэм, представляет первый выпуск из серии передач Comedy Central special. Помимо уже многим полюбившихся Уолтэра, Орешка и Хозэ Перца-на палке, в этом выпуске Джефф представляет вашему вниманию ещё двух новых персонажей.-Качество: DVDRip
Формат: AVI
Видео кодек: Xvid
Аудио кодек: MP3
Видео: Xvid 640x352, 29.97fps, 866 Kbps
Аудио: English, MPEG Audio Layer 3 48000Hz stereo, 124kbps

MI

General
Complete name                    : 2011. Jeff Dunham - Controlled Chaos DVDRip.avi
Format                           : AVI
Format/Info                      : Audio Video Interleave
File size                        : 697 MiB
Duration                         : 1h 37mn
Overall bit rate                 : 1 005 Kbps
Writing application              : VirtualDubMod 1.5.10.2 (build 2540/release)
Writing library                  : VirtualDubMod build 2540/release
Video
ID                               : 0
Format                           : MPEG-4 Visual
Format profile                   : Advanced [email protected]
Format settings, BVOP            : 2
Format settings, QPel            : No
Format settings, GMC             : No warppoints
Format settings, Matrix          : Default (MPEG)
Muxing mode                      : Packed bitstream
Codec ID                         : XVID
Codec ID/Hint                    : XviD
Duration                         : 1h 37mn
Bit rate                         : 866 Kbps
Width                            : 640 pixels
Height                           : 352 pixels
Display aspect ratio             : 16:9
Frame rate                       : 29.970 fps
Color space                      : YUV
Chroma subsampling               : 4:2:0
Bit depth                        : 8 bits
Scan type                        : Progressive
Compression mode                 : Lossy
Bits/(Pixel*Frame)               : 0.128
Stream size                      : 601 MiB (86%)
Writing library                  : XviD 62
Audio
ID                               : 1
Format                           : MPEG Audio
Format version                   : Version 1
Format profile                   : Layer 3
Codec ID                         : 55
Codec ID/Hint                    : MP3
Duration                         : 1h 37mn
Bit rate mode                    : Variable
Bit rate                         : 125 Kbps
Channel(s)                       : 2 channels
Sampling rate                    : 48.0 KHz
Compression mode                 : Lossy
Stream size                      : 86.4 MiB (12%)
Alignment                        : Aligned on interleaves
Interleave, duration             : 24 ms (0.72 video frame)
Interleave, preload duration     : 515 ms
Writing library                  : LAME3.98

Скриншоты




Создавать темы 11-Мар-2014 21:40

[Профиль]  [ЛС] 
Показать сообщения:    
Ответить на тему

Текущее время: 17-Авг 13:03

Часовой пояс: UTC + 5



Вы не можете начинать темы
Вы не можете отвечать на сообщения
Вы не можете редактировать свои сообщения
Вы не можете удалять свои сообщения
Вы не можете голосовать в опросах
Вы не можете прикреплять файлы к сообщениям
Вы не можете скачивать файлы