Наживка 3D / Bait 3D (Кимбл Рендалл) [2012 г., Ужасы, боевик, триллер, [BDRip 1080p] [Original (Eng)+ Russian] [Subs (ENG)]

Страницы :  1, 2  След.

Ответить на тему
 

siyovush101 ®

Стаж: 3 года 7 месяцев

Сообщений: 205

Симпатии: 71

Наживка 3D / Bait 3D / BDRip 1080p
Год выпуска: 2012
Страна: США Австралия
Жанр: Ужасы, боевик, триллер
Продолжительность: 01:33:17
Перевод: Профессиональный (одноголосый) Студия "Райдо"
Режиссер: Кимбл Рендалл
В ролях: Фиби Тонкин, Завьер Сэмюэл, Шарни Винсон,
Джулиан МакМэхон, Кариба Хейн, Алекс Расселл, Линкольн Льюис,
Элис Паркинсон, Дэниэл Уилли, Ричард Бранкатисано
Описание: На Город Обрушается Цунами Сметая Всё...Но Всё Страшное Происходит После него...Акула Попавшая в Супермаркет Грозит Выжившим не Выжить! История Между Двумя Влюблёнными Вновь Связана С Акулами Которые До Этого Слопали Брата Девушки! Короче Фильм Классный! а в 3D Воще Капец! Советую!
Доп. информация: Вообще Фильм Правильно называется НАЖИВКА а не Цунами! Ставим Лайк Если Понравился Мой Релиз!
И Помните Друзья Терпение Прежде Всего! Новый Релиз Трудно Раздать "БЫСТРО" Сид Всего Один! Сам Релизер! не Пишите "ГАЗУ! СКОРОСТИ ДАЙТЕ" Терпение Друзья и Всё будет Чики Чики))
Качество: BDRip 1080p
Формат: MKV
Видео кодек: AVC
Аудио кодек: AC3
Видео: 12.1 Mbps 1920x1080
Аудио1: AC-3 6 ch 448 Kbps Russian
Аудио2: AC-3 6 ch 640 Kbps English
Субтитры ENG

Скриншоты



MI

Video #1
ID : 1
Format : AVC
Format/Info : Advanced Video Codec
Format profile : [email protected]
Format settings, CABAC : Yes
Format settings, ReFrames : 4 frames
Codec ID : V_MPEG4/ISO/AVC
Duration : 1h 33mn
Bit rate : 12.1 Mbps
Width : 1 920 pixels
Height : 1 080 pixels
Display aspect ratio : 16:9
Frame rate : 23.976 fps
Original frame rate : 25.000 fps
Color space : YUV
Chroma subsampling : 4:2:0
Bit depth : 8 bits
Scan type : Progressive
Bits/(Pixel*Frame) : 0.242
Stream size : 7.85 GiB (87%)
Title : BDrip by Ash61
Writing library : x264 core 119 r2106 07efeb4
Language : English
Default : Yes
Forced : No
Audio #2
ID : 2
Format : AC-3
Format/Info : Audio Coding 3
Mode extension : CM (complete main)
Format settings, Endianness : Big
Codec ID : A_AC3
Duration : 1h 33mn
Bit rate mode : Constant
Bit rate : 448 Kbps
Channel(s) : 6 channels
Channel positions : Front: L C R, Side: L R, LFE
Sampling rate : 48.0 KHz
Bit depth : 16 bits
Compression mode : Lossy
Stream size : 299 MiB (3%)
Title : Îäíîãîëîñûé çàêàäðîâûé - Ñòóäèÿ "Ðàéäî"
Language : Russian
Default : Yes
Forced : No
Audio #3
ID : 3
Format : AC-3
Format/Info : Audio Coding 3
Mode extension : CM (complete main)
Format settings, Endianness : Big
Codec ID : A_AC3
Duration : 1h 33mn
Bit rate mode : Constant
Bit rate : 640 Kbps
Channel(s) : 6 channels
Channel positions : Front: L C R, Side: L R, LFE
Sampling rate : 48.0 KHz
Bit depth : 16 bits
Compression mode : Lossy
Stream size : 427 MiB (5%)
Title : Original
Language : English
Default : No
Forced : No
Text #4
ID : 4
Format : UTF-8
Codec ID : S_TEXT/UTF8
Codec ID/Info : UTF-8 Plain Text
Language : English
Default : No
Forced : No



Последний раз редактировалось: siyovush101 (2014-03-31 01:27), всего редактировалось 14 раз(а)

Создавать темы 12-Мар-2014 00:29

[Профиль]  [ЛС] 

siyovush101 ®

Стаж: 3 года 7 месяцев

Сообщений: 205

Симпатии: 71

СТАВИМ ЛАЙК ЕСЛИ ПОНРАВИЛСЯ РЕЛИЗ! МОДЕРАТОРЫ НЕ СУДИТЕ СТРОГО! МОЙ СТАЖ ЧУТЬ БОЛЬШЕ МЕСЯЦА! МОЙ ТРЕТИЙ РЕЛИЗ! ОСВАИВАЮСЬ!!!!

Создавать темы 12-Мар-2014 00:50

[Профиль]  [ЛС] 

RavD

Стаж: 4 года 3 месяца

Сообщений: 25

Симпатии: 1

Я фильм не "Цунами" разве называется?

Создавать темы 12-Мар-2014 01:30

[Профиль]  [ЛС] 

siyovush101 ®

Стаж: 3 года 7 месяцев

Сообщений: 205

Симпатии: 71

793623Я фильм не "Цунами" разве называется?
BAIT в переводе Наживка приманка)))) и в фильме в начале когда буковки падают в воду "BAIT" гвоорят наживка))) да и потом в сто рАЗ БОЛЬШЕ ЭТОМУ ФИЛЬМУ ПОДХОДИТ НАЗВАНИЕ НАЖИВКА)))) Брат mb

Создавать темы 12-Мар-2014 01:34

[Профиль]  [ЛС] 

siyovush101 ®

Стаж: 3 года 7 месяцев

Сообщений: 205

Симпатии: 71

никому 3д ненадо чёли...видать зря старался(

Создавать темы 12-Мар-2014 04:13

[Профиль]  [ЛС] 

Grock

Стаж: 6 лет 7 месяцев

Сообщений: 637

Симпатии: 113

siyovush101, Сделайте оригинальные скриншоты, должны быть размером 1920x1080

Создавать темы 12-Мар-2014 12:12

[Профиль]  [ЛС] 

M_A_K

Стаж: 5 лет 8 месяцев

Сообщений: 100

Симпатии: 15

793651никому 3д ненадо чёли...видать зря старался(
ничего не зря мне например очень надо, это фильм цунами , если скачаю подклею дубляж и посмотрю с удовольствием ta

Создавать темы 12-Мар-2014 13:37

[Профиль]  [ЛС] 

M_A_K

Стаж: 5 лет 8 месяцев

Сообщений: 100

Симпатии: 15

только вот сидера не видно не фига

Создавать темы 12-Мар-2014 13:39

[Профиль]  [ЛС] 

siyovush101 ®

Стаж: 3 года 7 месяцев

Сообщений: 205

Симпатии: 71

ВНИМАНИЕ нормальная раздача будет чуть позже

Создавать темы 13-Мар-2014 01:26

[Профиль]  [ЛС] 

siyovush101 ®

Стаж: 3 года 7 месяцев

Сообщений: 205

Симпатии: 71

796743ждем нормальной раздачи)
я уже раздал 150% фильма! у людей вон есть совесть сидируют! в другом релизе своём раздал 735%....там совести у личеров нет! везде разные люди___))) и коллектив))))) даже здесь

Создавать темы 20-Мар-2014 23:03

[Профиль]  [ЛС] 

siyovush101 ®

Стаж: 3 года 7 месяцев

Сообщений: 205

Симпатии: 71

816397Спасибо!
mb

Создавать темы 25-Май-2014 12:32

[Профиль]  [ЛС] 

siyovush101 ®

Стаж: 3 года 7 месяцев

Сообщений: 205

Симпатии: 71

Спасибо Скачавшим! Таким Как denchik1982 . имеют Совесть Сидируют!

Создавать темы 29-Май-2014 10:54

[Профиль]  [ЛС] 

morozko

Стаж: 6 лет 8 месяцев

Сообщений: 83

Симпатии: 17

а фильм хоть интересный?

Создавать темы 29-Май-2014 21:46

[Профиль]  [ЛС] 

siyovush101 ®

Стаж: 3 года 7 месяцев

Сообщений: 205

Симпатии: 71

835577а фильм хоть интересный?
Туфту не заливаю

Создавать темы 12-Июн-2014 00:22

[Профиль]  [ЛС] 

siyovush101 ®

Стаж: 3 года 7 месяцев

Сообщений: 205

Симпатии: 71

СИДИРУЙТЕ ДЛЯ ЛИЧЕРОВ СКАЧАВШИЕ....

Создавать темы 31-Окт-2014 20:44

[Профиль]  [ЛС] 
Показать сообщения:    
Ответить на тему

Текущее время: 25-Сен 02:22

Часовой пояс: UTC + 5



Вы не можете начинать темы
Вы не можете отвечать на сообщения
Вы не можете редактировать свои сообщения
Вы не можете удалять свои сообщения
Вы не можете голосовать в опросах
Вы не можете прикреплять файлы к сообщениям
Вы не можете скачивать файлы