Законопослушный Гражданин / Law Abiding Citizen (Ф. Гэри Грей / F. Gary Gray) [2009 г., Триллер, Драма, BDRip 720p] (DUB) (Режиссёрская Версия)

Страницы :  1, 2  След.

Ответить на тему
 

siyovush101 ®

Стаж: 3 года 9 месяцев

Сообщений: 205

Симпатии: 71

Законопослушный Гражданин / Law Abiding Citizen / 720p Год выпуска: 2009
Страна: США
Жанр: Триллер, Драма tx
Продолжительность: 01:58:07-Перевод: Профессиональный (полное дублирование)-Режиссер: Ф. Гэри Грей / F. Gary Gray-В ролях: Джерард Батлер, Джейми Фокс, Колм Мини, Брюс МакГилл, Лесли Бибб, Майкл Ирби, Грегори Итцин, Реджина Холл, Кристиан Столте-Описание: Фильм рассказывает о помощнике прокурора, случайно узнавшем о своей причастности к делу психически
неуравновешенного преступника,
Озлобленного одержимого местью за смерть его жены и дочери, чьи убийцы были освобождены из-за юридических лазеек.
Заключённый,Отец.. предлагает ультиматум: или его отпускают, или в городе начнут умирать люди, Которые Хоть Как то Причастные к его Горю...Которых Он Будет убивать ужасными
способами так Как Сам Он очень Интеллектуален.. Помощник прокурора, адвокат, осознаёт,
что своим решениями создал этого ужасающего Горящего Ненавистью Человека, и только он один может остановить его. да только все они заслуживали смерти...Безразличие Страшное из Всех Бед...-Доп. информация: ПОЛНАЯ ВЕРСИЯ ФИЛЬМА (Показ Распиливания Ноги Дарби и Прочее) Фильм Идёт на 10 минут Больше Чем обычная Версия!Места Которые Не были Показаны В Обычной Версии без Перевода!Но Не Пугайтесь Друзья,Там В Основном Действия и 2-3 Малых диалога. Понравился Релиз? Нажми "Мне Нравится" В Нижем Углу!!!-Качество: BDRip 720р
Формат: MKV
Видео кодек: AVC
Аудио кодек: AC3
Видео: 4 662 Kbps 1280х536
Аудио: AC3 6 ch 640 Kbps Russian-

Скриншоты




MI

Format : Matroska
Format version : Version 2
File size : 4.37 GiB
Duration : 1h 58mn
Overall bit rate : 5 295 Kbps
Encoded date : UTC 2010-01-17 04:58:10
Writing application : mkvmerge v2.9.8 ('C'est le bon') built on Aug 13 2009 12:49:06
Writing library : libebml v0.7.7 + libmatroska v0.8.1
Video #1
ID : 1
Format : AVC
Format/Info : Advanced Video Codec
Format profile : [email protected]
Format settings, CABAC : Yes
Format settings, ReFrames : 5 frames
Codec ID : V_MPEG4/ISO/AVC
Duration : 1h 58mn
Bit rate : 4 662 Kbps
Width : 1 280 pixels
Height : 536 pixels
Display aspect ratio : 2.40:1
Frame rate : 23.976 fps
Color space : YUV
Chroma subsampling : 4:2:0
Bit depth : 8 bits
Scan type : Progressive
Bits/(Pixel*Frame) : 0.283
Stream size : 3.75 GiB (86%)
Writing library : x264 core 83 r1391 3d0f110
Language : English
Default : Yes
Forced : No
Audio #2
ID : 2
Format : AC-3
Format/Info : Audio Coding 3
Mode extension : CM (complete main)
Format settings, Endianness : Big
Codec ID : A_AC3
Duration : 1h 58mn
Bit rate mode : Constant
Bit rate : 640 Kbps
Channel(s) : 6 channels
Channel positions : Front: L C R, Side: L R, LFE
Sampling rate : 48.0 KHz
Bit depth : 16 bits
Compression mode : Lossy
Stream size : 541 MiB (12%)
Title : http://hqfans.tomsk.ru
Language : Russian
Default : Yes
Forced : No



Последний раз редактировалось: siyovush101 (2014-04-07 12:51), всего редактировалось 27 раз(а)

Создавать темы 12-Мар-2014 02:14

[Профиль]  [ЛС] 

siyovush101 ®

Стаж: 3 года 9 месяцев

Сообщений: 205

Симпатии: 71

качайте релиз друзья! Всем Рад! модеры не будьте жестоки ко мне плиз! новичёк я! стаж месяц с лишним! осваиваюсь!

Создавать темы 12-Мар-2014 02:42

[Профиль]  [ЛС] 

Grock

Стаж: 6 лет 9 месяцев

Сообщений: 637

Симпатии: 113

siyovush101, Изменил постер, в остальном все хорошо).

Создавать темы 12-Мар-2014 12:52

[Профиль]  [ЛС] 

Дмитриев

Стаж: 7 лет 5 месяцев

Сообщений: 139

Симпатии: 12

siyovush101, Отличный фильм Спасибо!
Джерард Батлер Суперский актёр ay

Создавать темы 12-Мар-2014 23:45

[Профиль]  [ЛС] 

siyovush101 ®

Стаж: 3 года 9 месяцев

Сообщений: 205

Симпатии: 71

794211siyovush101, Отличный фильм Спасибо!
Джерард Батлер Суперский актёр ay
mb tf Спасибо за Спасибо Брат!!!

Создавать темы 13-Мар-2014 01:09

[Профиль]  [ЛС] 

siyovush101 ®

Стаж: 3 года 9 месяцев

Сообщений: 205

Симпатии: 71

ВНИМАНИЕ Раздача будет чуть позже

Создавать темы 13-Мар-2014 01:41

[Профиль]  [ЛС] 

siyovush101 ®

Стаж: 3 года 9 месяцев

Сообщений: 205

Симпатии: 71

эЭЭ Алёёё у вас есть совесть я закачки торможу раздачами а ы скачиваете и не сидируете! ну вы даёте вообще

Создавать темы 16-Мар-2014 14:10

[Профиль]  [ЛС] 

siyovush101 ®

Стаж: 3 года 9 месяцев

Сообщений: 205

Симпатии: 71

Совести нет у людей! я раздал 22 гига 500% фильма! 5 раз! и все кто скачал один или двое только посидировали и всё! совесть где ребята? bc :bb: be

Создавать темы 20-Мар-2014 18:30

[Профиль]  [ЛС] 

siyovush101 ®

Стаж: 3 года 9 месяцев

Сообщений: 205

Симпатии: 71

799358Народ, станьте на раздачу!!!
В Личке их призывай! я раздал 625% как раздам 700% на этом всё! надоели все! 11 раз скачали и плевать хотели...нет уважения и обратного не будет

Создавать темы 23-Мар-2014 18:48

[Профиль]  [ЛС] 

akmal301

Стаж: 5 лет 9 месяцев

Сообщений: 22

Симпатии: 1

фильм просто супер! 100 раз смотрел. хочу ещё раз смотреть. siyovush101 ® ты просто молодец! чьё ты так торопишься? люди кто оценивают хорошие достойные уважению фильмы ещё будут скачать. терпения тебе. терпения. успокойся. да у тебя же рейтинг в разы выше чем у меня. чьё так нервничаешь непонимаю ))

Создавать темы 25-Мар-2014 20:01

[Профиль]  [ЛС] 

siyovush101 ®

Стаж: 3 года 9 месяцев

Сообщений: 205

Симпатии: 71

801951фильм просто супер! 100 раз смотрел. хочу ещё раз смотреть. siyovush101 ® ты просто молодец! чьё ты так торопишься? люди кто оценивают хорошие достойные уважению фильмы ещё будут скачать. терпения тебе. терпения. успокойся. да у тебя же рейтинг в разы выше чем у меня. чьё так нервничаешь непонимаю ))
Спасибо Брат!!!! Просто многие скачивют и не раздают! я тоже для людей старался! потомучто благодаря другим тоже качаю! Мне приятно что люди есть брат! если будешь качать скажи! я ещё посидирую! Благодарным всегда рад! mb и дело не в рейтинге! меня бесит то что тем кто раздал скачали! и не сидируют! а те кто скачивает и у них ступор возможно классные ребята! обычно так и бывает в жизни во всём!

Создавать темы 26-Мар-2014 23:18

[Профиль]  [ЛС] 

siyovush101 ®

Стаж: 3 года 9 месяцев

Сообщений: 205

Симпатии: 71

ban был бы модератором выдал бан многим!


Последний раз редактировалось: siyovush101 (2014-06-18 13:44), всего редактировалось 1 раз

Создавать темы 07-Апр-2014 01:09

[Профиль]  [ЛС] 

siyovush101 ®

Стаж: 3 года 9 месяцев

Сообщений: 205

Симпатии: 71

Релизер Раздал 44 Гб! 1000%


Последний раз редактировалось: siyovush101 (2014-04-29 21:00), всего редактировалось 1 раз

Создавать темы 07-Апр-2014 01:11

[Профиль]  [ЛС] 

ABlackman

Стаж: 3 года 9 месяцев

Сообщений: 9

Супер Братка!

Создавать темы 24-Апр-2014 23:34

[Профиль]  [ЛС] 

siyovush101 ®

Стаж: 3 года 9 месяцев

Сообщений: 205

Симпатии: 71

818818Супер Братка!
Спасибо mb

Создавать темы 25-Май-2014 12:32

[Профиль]  [ЛС] 
Показать сообщения:    
Ответить на тему

Текущее время: 19-Ноя 02:22

Часовой пояс: UTC + 5



Вы не можете начинать темы
Вы не можете отвечать на сообщения
Вы не можете редактировать свои сообщения
Вы не можете удалять свои сообщения
Вы не можете голосовать в опросах
Вы не можете прикреплять файлы к сообщениям
Вы не можете скачивать файлы