Воздушный маршал / Non-Stop (Хауме Кольет-Серра) [2014 г., боевик, триллер, детектив, TeleSynch]

Страницы :  1, 2  След.

Ответить на тему
 

Slapper ®

Стаж: 4 года

Сообщений: 2193

Симпатии: 213

Воздушный маршал / Non-Stop--«Захват самолёта - это только начало»- Год выпуска: 2014
Страна: Великобритания, Франция, США
Жанр: боевик, триллер, детектив
Продолжительность: 01:39:54
Перевод: Отсутствует
Язык субтитров: Испанский-Режиссер: Хауме Кольет-Серра-В ролях: Лиам Нисон, Джулианна Мур, Скут МакНэйри, Мишель Докери, Нэйт Паркер, Кори Столл, Лупита Нионго, Омар Метуолли, Джейсон Батлер Харнер, Лайнас Роуч-Описание: Межконтинентальный авиарейс. Билл Маркс, воздушный маршал, который обеспечивает безопасность пассажиров, получает сообщения с угрозами от маньяка-террориста. Преступник просчитал все ходы и подставил под обвинение самого спецагента. Теперь Маркс — цель спецслужб США. Ему остается одно: вычислить и обезвредить преступника, спасти пассажиров и свою любовь, которую он обретает на краю гибели. До взрыва остаются считанные минуты…
---Качество: TeleSynch
Формат: AVI
Видео кодек: XviD
Аудио кодек: AC3
Видео: 720 x 320, ~1757 Kbit/s
Аудио: AC3 2.0, 192 Kbit/s
-

Скриншоты



МедиаИнфо

Общее
Полное имя                       : D:\Торренты\Воздушный маршал.2014.TS.ENG.avi
Формат                           : AVI
Формат/Информация                : Audio Video Interleave
Размер файла                     : 1,37 Гбайт
Продолжительность                : 1 ч. 39 м.
Общий поток                      : 1958 Кбит/сек
Программа кодирования            : VirtualDubModRus 1.5.10.2 (build 2542/release)
Библиотека кодирования           : VirtualDubMod build 2542/release
Видео
Идентификатор                    : 0
Формат                           : MPEG-4 Visual
Профиль формата                  : Advanced [email protected]
Параметр BVOP формата            : 2
Параметр QPel формата            : Нет
Параметр GMC формата             : Без точки перехода
Параметр матрицы формата         : Выборочная
Идентификатор кодека             : XVID
Идентификатор кодека/Подсказка   : XviD
Продолжительность                : 1 ч. 39 м.
Битрейт                          : 1757 Кбит/сек
Ширина                           : 720 пикс.
Высота                           : 320 пикс.
Соотношение сторон               : 2,25:1
Частота кадров                   : 25,000 кадр/сек
Цветовое пространство            : YUV
Подвыборка цветности             : 4:2:0
Битовая глубина                  : 8 бит
Тип развёртки                    : Прогрессивная
Метод сжатия                     : С потерями
Бит/(Пиксели*Кадры)              : 0.305
Размер потока                    : 1,23 Гбайт (90%)
Библиотека кодирования           : XviD 1.2.1 (UTC 2008-12-04)
Аудио
Идентификатор                    : 1
Формат                           : AC-3
Формат/Информация                : Audio Coding 3
Расширение режима                : CM (complete main)
Идентификатор кодека             : 2000
Продолжительность                : 1 ч. 39 м.
Вид битрейта                     : Постоянный
Битрейт                          : 192 Кбит/сек
Каналы                           : 2 канала
Расположение каналов             : Front: L R
Частота                          : 48,0 КГц
Битовая глубина                  : 16 бит
Метод сжатия                     : С потерями
Размер потока                    : 137 Мбайт (10%)
Выравнивание                     : Разделение по промежуткам
Продолжительность промежутка     : 40  мс. (1,00 видеокадр)
Время предзагрузки промежутка    : 500 ms

Создавать темы 12-Мар-2014 08:28

[Профиль]  [ЛС] 

Xakker_xxx

Стаж: 5 лет 7 месяцев

Сообщений: 53

Симпатии: 1

Если перевод нету как можно понят фильм?

Создавать темы 12-Мар-2014 08:55

[Профиль]  [ЛС] 

Slapper ®

Стаж: 4 года

Сообщений: 2193

Симпатии: 213

Xakker_xxx, не знаю :D

Создавать темы 12-Мар-2014 08:55

[Профиль]  [ЛС] 

Slapper ®

Стаж: 4 года

Сообщений: 2193

Симпатии: 213

Xakker_xxx, совет : учи испанский ))

Создавать темы 12-Мар-2014 08:55

[Профиль]  [ЛС] 

saidnosir

Стаж: 4 года 10 месяцев

Сообщений: 8

фильм на английском?

Создавать темы 12-Мар-2014 09:37

[Профиль]  [ЛС] 

Slapper ®

Стаж: 4 года

Сообщений: 2193

Симпатии: 213

saidnosir, вроде бы да. а субтитры на испанском. позже залью звуковую русскую дорожку

Создавать темы 12-Мар-2014 10:25

[Профиль]  [ЛС] 

dilshod5254

Стаж: 6 лет 7 месяцев

Сообщений: 106

Симпатии: 14

ггы чут не начал качать эту испаналогияю, чё ангиский дорожек тоже нету

Создавать темы 12-Мар-2014 22:37

[Профиль]  [ЛС] 

Slapper ®

Стаж: 4 года

Сообщений: 2193

Симпатии: 213

dilshod5254, ага нету пока что, как будет сообщу

Создавать темы 12-Мар-2014 23:51

[Профиль]  [ЛС] 

Slapper ®

Стаж: 4 года

Сообщений: 2193

Симпатии: 213

святослав арий, слушай, не нравится не отписывайся....
зачем качал, раз ущербный такой?
В твоей раздаче никто не нуждается

Создавать темы 14-Мар-2014 22:18

[Профиль]  [ЛС] 

pct

Стаж: 6 лет 9 месяцев

Сообщений: 120

Симпатии: 12

Если фильм без перевода, наверно его нужно перенести в соответствующую тему?

Создавать темы 19-Мар-2014 06:53

[Профиль]  [ЛС] 

nights_herror

Стаж: 3 года 10 месяцев

Сообщений: 3

Симпатии: 1

так я не понял он без перевода

Создавать темы 21-Мар-2014 22:16

[Профиль]  [ЛС] 

nights_herror

Стаж: 3 года 10 месяцев

Сообщений: 3

Симпатии: 1

Если фильм без перевода, наверно его нужно перенести в соответствующую тему?
разумно подметил

Создавать темы 21-Мар-2014 22:17

[Профиль]  [ЛС] 

DrummeR

Стаж: 4 года 4 месяца

Сообщений: 6

Залейте плс на англ или на русском а то неичего не понятно

Создавать темы 24-Мар-2014 14:33

[Профиль]  [ЛС] 

13werewolf13

Стаж: 5 лет 6 месяцев

Сообщений: 19

Симпатии: 1

Перенесите в раздел "фильмы без перевода", не вносите смуту в массы!!!!!!!!

Создавать темы 28-Мар-2014 23:49

[Профиль]  [ЛС] 

pct

Стаж: 6 лет 9 месяцев

Сообщений: 120

Симпатии: 12

Я уже посмотрел хороший телесинх, а на торренте нифига нет. Фильм так себе.

Создавать темы 08-Апр-2014 23:28

[Профиль]  [ЛС] 
Показать сообщения:    
Ответить на тему

Текущее время: 25-Ноя 08:40

Часовой пояс: UTC + 5



Вы не можете начинать темы
Вы не можете отвечать на сообщения
Вы не можете редактировать свои сообщения
Вы не можете удалять свои сообщения
Вы не можете голосовать в опросах
Вы не можете прикреплять файлы к сообщениям
Вы не можете скачивать файлы