Рыцари королевства Крутизны / Knights of Badassdom (Джо Линч / Joe Lynch) [2013 г., фэнтези, ужасы, комедия, WEB-DLRip]

Ответить на тему
 

Slapper ®

Стаж: 4 года

Сообщений: 2193

Симпатии: 213

Рыцари королевства Крутизны / Knights of Badassdom- Год выпуска: 2013
Страна: США
Жанр: фэнтези, ужасы, комедия
Продолжительность: 01:25:43
Перевод: Профессиональный (многоголосый, закадровый) [ViruseProject]-Режиссер: Джо Линч / Joe Lynch-В ролях: Райан Квантен ("Настоящая кровь"), Стив Зан ("Национальная безопасность" и т.п.), Питер Динклэйдж ("Игра Престолов" и т.п.), Саммер Глау ("Светлячок", "Терминатор: Битва за будущее"), Маргарита Левиева, Том Хоппер, Джимми Симпсон, Дэнни Пуди, Джошуа Малина, У. Эрл Браун и др.-Описание: Джо кидает девушка, и поэтому его друзья, повернутые на ролевых играх Эрик и Ханг, предлагают пыхнуть кальянчика и расслабиться. В итоге Джо просыпается в грузовике, разодетый в рыцаря в эпицентре ролевой игры. Дружбаны уговаривают его провести этот ролевой день с ними, чтобы Джо забыл свою девушку. Далее Эрик, сам того не зная, вызывает демона при помощи книги, купленной в Интернете, и теперь друзьям нужно победить этого демона, спасти целое поле народа и самим не погибнуть…-Доп. информация: ВНИМАНИЕ!!! НЕМНОГО НЕНОРМАТИВНОЙ ЛЕКСИКИ И ПАЧКА КРОВИ!!!
Лицам не достигшим 18 лет и тем, кто не переваривает нецензурные выражение и насилие - категорически не рекомендуется смотреть
--Качество: WEB-DLRip
Формат: AVI
Видео кодек: XviD
Аудио кодек: AC3
Видео: 720x304 (2.37:1), 23.976 fps, XviD build 50 ~2050 kbps avg, 0.39 bit/pixel
Аудио: 48 kHz, AC3 Dolby Digital, 3/2 (L,C,R,l,r) + LFE ch, ~384 kbps

Скриншоты



MediaInfo

D:\ОЗВУЧКА\ФИЛЬМЫ\РЫЦАРИ КОРОЛЕВСТВА КРУТИЗНЫ\Knights.Of.Badassdom.2013.WEB-DL.ViruseProject.avi
General
Complete name : D:\ОЗВУЧКА\ФИЛЬМЫ\РЫЦАРИ КОРОЛЕВСТВА КРУТИЗНЫ\Knights.Of.Badassdom.2013.WEB-DL.ViruseProject.avi
Format : AVI
Format/Info : Audio Video Interleave
File size : 1.46 GiB
Duration : 1h 25mn
Overall bit rate : 2 444 Kbps
Writing application : VirtualDubMod 1.5.10.2 (build 2540/release)
Writing library : VirtualDubMod build 2540/release
Video #0
ID : 0
Format : MPEG-4 Visual
Format profile : Advanced [email protected]
Format settings, BVOP : 1
Format settings, QPel : No
Format settings, GMC : No warppoints
Format settings, Matrix : Default (MPEG)
Codec ID : XVID
Codec ID/Hint : XviD
Duration : 1h 25mn
Bit rate : 2 051 Kbps
Width : 720 pixels
Height : 304 pixels
Display aspect ratio : 2.35:1
Frame rate : 23.976 fps
Color space : YUV
Chroma subsampling : 4:2:0
Bit depth : 8 bits
Scan type : Progressive
Compression mode : Lossy
Bits/(Pixel*Frame) : 0.391
Stream size : 1.23 GiB (84%)
Writing library : XviD 1.2.1 (UTC 2008-12-04)
Audio #1
ID : 1
Format : AC-3
Format/Info : Audio Coding 3
Mode extension : CM (complete main)
Format settings, Endianness : Big
Codec ID : 2000
Duration : 1h 25mn
Bit rate mode : Constant
Bit rate : 384 Kbps
Channel count : 6 channels
Channel positions : Front: L C R, Side: L R, LFE
Sampling rate : 48.0 KHz
Bit depth : 16 bits
Compression mode : Lossy
Stream size : 235 MiB (16%)
Alignment : Split accross interleaves
Interleave, duration : 42 ms (1.00 video frame)
Interleave, preload duration : 500 ms

Создавать темы 12-Мар-2014 08:41

[Профиль]  [ЛС] 

Slapper ®

Стаж: 4 года

Сообщений: 2193

Симпатии: 213

Жанибек, я с рутрекера качал там 2014 год написано

Создавать темы 12-Мар-2014 10:27

[Профиль]  [ЛС] 

Grock

Стаж: 6 лет 9 месяцев

Сообщений: 637

Симпатии: 113

Slapper, Фильм 2013 года

Создавать темы 12-Мар-2014 12:42

[Профиль]  [ЛС] 

rusya1990

Стаж: 5 лет

Сообщений: 4

Симпатии: 2

Да какая блин разница какой год?! Фильм классный)

Создавать темы 25-Мар-2014 19:33

[Профиль]  [ЛС] 

GoodWin7770

Стаж: 4 года 7 месяцев

Сообщений: 4

На экраны Раши вышел только в этом году наверное. А где скорость товарищи?!

Создавать темы 17-Апр-2014 13:14

[Профиль]  [ЛС] 
Показать сообщения:    
Ответить на тему

Текущее время: 21-Ноя 07:41

Часовой пояс: UTC + 5



Вы не можете начинать темы
Вы не можете отвечать на сообщения
Вы не можете редактировать свои сообщения
Вы не можете удалять свои сообщения
Вы не можете голосовать в опросах
Вы не можете прикреплять файлы к сообщениям
Вы не можете скачивать файлы