Аладдин и смертельная лампа / Aladdin and the Death Lamp (Марио Аццопарди) [2012 г., ужасы, фэнтези, приключения, HDRip]

Ответить на тему
 

Hasan Qurbonov ®

Стаж: 3 года 11 месяцев

Сообщений: 10

Симпатии: 1

Аладдин и смертельная лампа / Aladdin and the Death Lamp Год выпуска: 2012
Страна: США, Канада
Жанр: ужасы, фэнтези, приключения
Продолжительность: 01:26:04
Перевод: Профессиональный (полное дублирование)
Режиссер: Марио Аццопарди
В ролях: Даррен Шахлави, Ноам Дженкинс, Кэндис МакКлюр, Юджин Кларк, Суреш Джон, Джордж Гали, Али Ризви, Миф Тиг Фонг, Ник Алачиотис
Описание: Аладдин - искатель сокровищ. Однажды он со своим другом Лукой находит в гробнице старинную книгу, в которой говорится о загадочных сокровищах. Руководствуясь книгой, Аладдин находит лампу и выпускает Джинна, который стремится открыть портал и выпустить в наш мир тысячу своих кровожадных братьев. Шахира, местный торговец, тоже узнаёт про лампу и желает её заполучить. А Аладдину же теперь предстоит изловить Джинна обратно в лампу, и никому не позволить открыть адский портал.
Качество: BDRip
Формат: AVI
Видео кодек: XviD
Аудио кодек: MPEG Audio
Видео: 720x400, 29.970 fps, 1 199 Kbps
Аудио: MPEG Audio, 128 Kbps, 44.1 KHz, 2 channels

MI

General
Complete name : D:\My documents\Кино\Последны\Aladdin and the Death Lamp 2012.avi
Format : AVI
Format/Info : Audio Video Interleave
File size : 825 MiB
Duration : 1h 26mn
Overall bit rate : 1 340 Kbps
Writing application : Lavf52.39.0
Video
ID : 0
Format : xvid
Codec ID : xvid
Duration : 1h 26mn
Bit rate : 1 199 Kbps
Width : 720 pixels
Height : 400 pixels
Display aspect ratio : 16:9
Frame rate : 29.970 fps
Bits/(Pixel*Frame) : 0.139
Stream size : 738 MiB (89%)
Audio
ID : 1
Format : MPEG Audio
Format version : Version 1
Format profile : Layer 3
Mode : Joint stereo
Mode extension : MS Stereo
Codec ID : 55
Codec ID/Hint : MP3
Duration : 1h 26mn
Bit rate mode : Constant
Bit rate : 128 Kbps
Channel(s) : 2 channels
Sampling rate : 44.1 KHz
Compression mode : Lossy
Stream size : 78.8 MiB (10%)
Alignment : Aligned on interleaves
Interleave, duration : 26 ms (0.78 video frame)
Interleave, preload duration : 52 ms

Скриншоты





Последний раз редактировалось: Hasan Qurbonov (2014-03-17 09:51), всего редактировалось 2 раз(а)

Создавать темы 12-Мар-2014 09:00

[Профиль]  [ЛС] 

Kill_billuzb

Стаж: 5 лет 9 месяцев

Сообщений: 29

Симпатии: 1

Тв3 !

Создавать темы 12-Мар-2014 13:15

[Профиль]  [ЛС] 

Grock

Стаж: 6 лет 8 месяцев

Сообщений: 637

Симпатии: 113

Hasan Qurbonov, Выложите Медиа Инфо, и встаньте на раздачу

Создавать темы 13-Мар-2014 01:02

[Профиль]  [ЛС] 
Показать сообщения:    
Ответить на тему

Текущее время: 21-Окт 02:48

Часовой пояс: UTC + 5



Вы не можете начинать темы
Вы не можете отвечать на сообщения
Вы не можете редактировать свои сообщения
Вы не можете удалять свои сообщения
Вы не можете голосовать в опросах
Вы не можете прикреплять файлы к сообщениям
Вы не можете скачивать файлы