Рыцари королевства Крутизны/ Knights of Badassdom (Джо Линч) [2013, Приключения, фэнтези, комедия, WEB-DLRip]

Ответить на тему
 

Каротажник ®

Стаж: 4 года 1 месяц

Сообщений: 195

Симпатии: 211

Рыцари королевства Крутизны / Knights of Badassdom

Год выпуска: 2013
Страна: США
Жанр: Приключения, фэнтези, комедия
Продолжительность: 01:25:43
Перевод: Любительский многоголосый [ViruseProject]-Режиссёр: Джо Линч
В ролях: Райан Квантен, Стив Зан, Питер Динклэйдж, Саммер Глау, Маргарита Левиева, Том Хоппер, Джимми Симпсон, Дэнни Пуди, Джошуа Малина, У. Эрл Браун-
Джо кидает девушка, в следствии чего его друзья повернутые на ролевых играх: Эрик и Ханг предлагают ему пыхнуть кальянчика и расслабиться. В итоге Джо просыпается в грузовике разодетый в рыцаря в эпицентре ролевых игр. Дружбаны уговаривают его провети этот ролевой день с ними, чтобы Джо забыл свою девушку. Далее Эрик сам того не зная вызывает демона при помощи книги купленной в интернете и теперь им нужно победить этого демона, спасти целое поле народа и самим не погибнуть...-Дополнительная информация:
Лицам не достигшим 18 лет и тем, кто не переваривает нецензурные выражение и насилие - категорически не рекомендуется смотреть-
Качество: WEB-DLRip
Формат: Avi
Видео: XviD,1895 kb/s, 720x296
Аудио: АС3, 384 kb/s (6 ch)

Media Info

Format : AVI
Format/Info : Audio Video Interleave
File size : 1.46 GiB
Duration : 1h 25mn
Overall bit rate : 2 444 Kbps
Writing application : VirtualDubMod 1.5.10.2 (build 2540/release)
Writing library : VirtualDubMod build 2540/release
Video
ID : 0
Format : MPEG-4 Visual
Format profile : Advanced [email protected]
Format settings, BVOP : 1
Format settings, QPel : No
Format settings, GMC : No warppoints
Format settings, Matrix : Default (MPEG)
Codec ID : XVID
Codec ID/Hint : XviD
Duration : 1h 25mn
Bit rate : 2 051 Kbps
Width : 720 pixels
Height : 296 pixels
Display aspect ratio : 2.40:1
Frame rate : 23.976 fps
Color space : YUV
Chroma subsampling : 4:2:0
Bit depth : 8 bits
Scan type : Progressive
Compression mode : Lossy
Bits/(Pixel*Frame) : 0.401
Stream size : 1.23 GiB (84%)
Writing library : XviD 1.2.1 (UTC 2008-12-04)
Audio
ID : 1
Format : AC-3
Format/Info : Audio Coding 3
Mode extension : CM (complete main)
Format settings, Endianness : Big
Codec ID : 2000
Duration : 1h 25mn
Bit rate mode : Constant
Bit rate : 384 Kbps
Channel(s) : 6 channels
Channel positions : Front: L C R, Side: L R, LFE
Sampling rate : 48.0 KHz
Bit depth : 16 bits
Compression mode : Lossy
Stream size : 235 MiB (16%)
Alignment : Split accross interleaves
Interleave, duration : 42 ms (1.00 video frame)
Interleave, preload duration : 500 ms

Скриншоты


Создавать темы 12-Мар-2014 09:02

[Профиль]  [ЛС] 
Показать сообщения:    
Ответить на тему

Текущее время: 18-Ноя 22:51

Часовой пояс: UTC + 5



Вы не можете начинать темы
Вы не можете отвечать на сообщения
Вы не можете редактировать свои сообщения
Вы не можете удалять свои сообщения
Вы не можете голосовать в опросах
Вы не можете прикреплять файлы к сообщениям
Вы не можете скачивать файлы