Эмануэль и правда о рыбах / The Truth About Emanuel (Франческа Грегорини / Francesca Gregorini) [2013, США, Триллер, драма, WEB-DLRip] VO (Andi)

Ответить на тему
 

razor2011 ®

Стаж: 5 лет 3 месяца

Сообщений: 227

Симпатии: 37

Эмануэль и правда о рыбах / The Truth About Emanuel
Страна: США
Жанр: Триллер, драма
Год выпуска: 2013
Продолжительность: 01:35:44
Перевод: Одноголосый закадровый [Andi]
Cубтитры: нет
Режиссер: Франческа Грегорини / Francesca Gregorini
сценарий: Франческа Грегорини, Сара Торп
продюсер: Франческа Грегорини, Руни Мара, Элис Бэмфорд, ...
оператор: Полли Морган
композитор: Нэйтан Ларсон
художник: Энн Коста, Бриттани Брэдфорд, Эрика Никорта, ...
монтаж: Энтони Лэнгдон
В ролях: Кая Скоделарио, Джессика Бил, Джимми Симпсон, Фрэнсис О’Коннор, Альфред Молина, Анайрин Барнард, Сэм Джагер, Энн Рэмси, Спенсер Гаррет, Габриэлла Диас
Описание: Эмануэль — язвительная и в то же время чувствительная девушка-подросток, живущая со своим отцом и мачехой. Приближается её очередной день рождения, однако Эмануэль безразличен этот праздник с тех пор, как её мать, подарив ей жизнь, умерла при родах. В это же время по соседству с ней поселяется загадочная Линда, обладающая поразительным сходством с покойной матерью Эмануэль. Заинтригованная данным фактом, Эмануэль начинает работать няней для новорожденной дочери Линды и постепенно втягивается в хрупкий, вымышленный мир своей соседки, в котором самой Эмануэль отведена роль привратника. --Качество видео: WEB-DLRip
Формат видео: AVI
Видео: Xvid 720x304 23.976fps 1557kbps
Аудио: Dolby AC3 48000Hz stereo 192kbps

MediaInfo

General
Complete name : E:\Films\New\Emanuel.2013.L1.WEBDLRip.avi
Format : AVI
Format/Info : Audio Video Interleave
File size : 1.18 GiB
Duration : 1h 35mn
Overall bit rate : 1 759 Kbps
Writing application : VirtualDubMod 1.5.10.3 | www.virtualdub-fr.org || (build 2550/release)
Writing library : VirtualDubMod build 2550/release
Video
ID : 0
Format : xvid
Codec ID : xvid
Duration : 1h 35mn
Bit rate : 1 557 Kbps
Width : 720 pixels
Height : 304 pixels
Display aspect ratio : 2.35:1
Frame rate : 23.976 fps
Bits/(Pixel*Frame) : 0.297
Stream size : 1.04 GiB (89%)
Audio
ID : 1
Format : AC-3
Format/Info : Audio Coding 3
Mode extension : CM (complete main)
Format settings, Endianness : Big
Codec ID : 2000
Duration : 1h 35mn
Bit rate mode : Constant
Bit rate : 192 Kbps
Channel(s) : 2 channels
Channel positions : Front: L R
Sampling rate : 48.0 KHz
Bit depth : 16 bits
Compression mode : Lossy
Stream size : 131 MiB (11%)
Alignment : Split accross interleaves
Interleave, duration : 42 ms (1.00 video frame)
Interleave, preload duration : 500 ms

скриншоты



Создавать темы 12-Мар-2014 12:07

[Профиль]  [ЛС] 
Показать сообщения:    
Ответить на тему

Текущее время: 14-Дек 05:25

Часовой пояс: UTC + 5



Вы не можете начинать темы
Вы не можете отвечать на сообщения
Вы не можете редактировать свои сообщения
Вы не можете удалять свои сообщения
Вы не можете голосовать в опросах
Вы не можете прикреплять файлы к сообщениям
Вы не можете скачивать файлы