13-й Район: Ультиматум / Banlieue 13 Ultimatum (Патрик Алессандрин / Patrick Alessandrin) [2009, Фантастика, Боевик, BDRip, 1080p]

Ответить на тему
 

Phantomhive ®

Стаж: 4 года 3 месяца

Сообщений: 218

Симпатии: 10

13-й Район: Ультиматум / Banlieue 13 Ultimatum
«Prets pour la version upgrade?»--- Год выпуска: 2009
Страна: Франция-Жанр: Фантастика, Боевик
Продолжительность: 01:40:46
Перевод: Профессиональный (полное дублирование)
Русские Субтитры: нет-Режиссер: Патрик Алессандрин
Сценарий: Люк Бессон /Luc Besson/
Продюсер: Люк Бессон, Дидье Хорау, Франк Лебретон
Оператор: Жан-Франсуа Хенсгенс-В ролях: Сирил Раффаэлли (Capt. Damien Tomaso), Дэвид Белль (Leïto), Филипп Торретон (Le président de la République), Даниэль Дюваль (Walter Gassman), Элоди Юнг (Tao), МС Жан Габен (Molko), Джеймс Диано (Karl le skin), Лауни Муид (Ali-K), Фабрис Флетцингер (Little Montana), Пьер-Мари Москони (Roland), Джонни Амаро (Policier centre de contrôle), Паскаль Д’Амато (Le garde escaller préfecture)-Дублёры: Александр Гаврилин (Capt. Damien Tomaso), Александр Коврижных (Leïto), Никита Прозоровский (Le président de la République), Александр Котов (Walter Gassman), Елена Чебатуркина (Tao), Баста (Molko), Батишта (Karl le skin), Тимати (Ali-K), Дмитрий Филимонов (Little Montana), Юрий Меншагин (Roland), Сергей Чонишвили (Le commandant de police), Александр Комлев (Samir)-Описание: 13-й район, два года спустя. Стена, отделяющая неблагополучный пригород от столицы, стала больше, выше и отгородила от цивилизации еще больше кварталов. По эту сторону стены правят пять банд, контролирующих этнические районы. Правительство как никогда заинтересовано в «урегулировании проблемы», и разведывательные службы охотно инициируют беспорядки. Лейто и Дамьену снова приходится объединить усилия, чтобы спасти Париж от хаоса.-Качество: BDRip (HiDt)
Формат: Matroska
Видео: AVC; 1920x816 (2.35:1); 13.7 Mbps; 24 fps; 0,353 bpp
Аудио №1: Russian; DTS; 768 Kbps; 48.0 Khz; 6 ch
Аудио №2: French; DTS; 1536 Kbps; 96.0 KHz; 6 ch
Субтитры: English

Доп. информация

Большую часть сцен фильма отсняли в Белграде.
После двух минут и десяти секунд титров идёт маленькая скрытая сцена. За столом сидят Президент Республики и главы преступных группировок 13-го района. Президент угощает их сигарами и спрашивает, знают ли они Жана Нувеля — всемирно известного архитектора. Видимо, имеется в виду, что Президент собирается привлечь Жана Нувеля к обещанной реконструкции 13-го района.

Media Info

General
Unique ID : 242196599968391270484272430431163549427 (0xB6355E517AF27E8B8DB53583D05286F3)
Complete name : F:\13-й Район\13-й район - Ультиматум\13-й Район - Ультиматум.mkv
Format : Matroska
Format version : Version 2
File size : 11.4 GiB
Duration : 1h 40mn
Overall bit rate : 16.2 Mbps
Encoded date : UTC 2009-09-27 11:43:33
Writing application : mkvmerge v2.9.8 ('C'est le bon') built on Aug 13 2009 12:49:06
Writing library : libebml v0.7.7 + libmatroska v0.8.1
Video
ID : 1
Format : AVC
Format/Info : Advanced Video Codec
Format profile : [email protected]
Format settings, CABAC : Yes
Format settings, ReFrames : 5 frames
Codec ID : V_MPEG4/ISO/AVC
Bit rate : 14.0 Mbps
Width : 1 920 pixels
Height : 816 pixels
Display aspect ratio : 2.35:1
Frame rate mode : Variable
Original frame rate : 24.000 fps
Color space : YUV
Chroma subsampling : 4:2:0
Bit depth : 8 bits
Scan type : Progressive
Bits/(Pixel*Frame) : 0.372
Title : x264
Writing library : x264 core 68 r1183M f21daff
Encoding settings : cabac=1 / ref=5 / deblock=1:-3:-3 / analyse=0x3:0x113 / me=umh / subme=9 / psy_rd=1.0:0.0 / mixed_ref=1 / me_range=32 / chroma_me=1 / trellis=2 / 8x8dct=1 / cqm=0 / deadzone=21,11 / chroma_qp_offset=-2 / threads=6 / nr=0 / decimate=1 / mbaff=0 / bframes=3 / b_pyramid=1 / b_adapt=2 / b_bias=0 / direct=3 / wpredb=1 / keyint=250 / keyint_min=25 / scenecut=40 / rc=2pass / bitrate=13972 / ratetol=1.0 / qcomp=0.60 / qpmin=10 / qpmax=51 / qpstep=4 / cplxblur=20.0 / qblur=0.5 / ip_ratio=1.40 / pb_ratio=1.30 / aq=1:0.80
Language : French
Default : Yes
Forced : No
Audio #1
ID : 2
Format : DTS
Format/Info : Digital Theater Systems
Mode : 16
Format settings, Endianness : Big
Codec ID : A_DTS
Duration : 1h 40mn
Bit rate mode : Constant
Bit rate : 755 Kbps
Channel(s) : 6 channels
Channel positions : Front: L C R, Side: L R, LFE
Sampling rate : 48.0 KHz
Bit depth : 24 bits
Compression mode : Lossy
Stream size : 544 MiB (5%)
Title : DTS; 768 Kbps; 6 ch - Dublyazh
Language : Russian
Default : Yes
Forced : No
Audio #2
ID : 3
Format : DTS
Format/Info : Digital Theater Systems
Format profile : 96/24 / Core
Mode : 16
Format settings, Endianness : Big
Codec ID : A_DTS
Duration : 1h 40mn
Bit rate mode : Constant
Bit rate : 1 509 Kbps
Channel(s) : 6 channels
Channel positions : Front: L C R, Side: L R, LFE
Sampling rate : 96.0 KHz / 48.0 KHz
Bit depth : 24 bits
Compression mode : Lossy
Stream size : 1.06 GiB (9%)
Title : DTS; 1536 Kbps; 6 ch
Language : French
Default : No
Forced : No
Text
ID : 4
Format : ASS
Codec ID : S_TEXT/ASS
Codec ID/Info : Advanced Sub Station Alpha
Compression mode : Lossless
Title : Ne tochnyj perevod
Language : English
Default : No
Forced : No

Скриншоты

Создавать темы 12-Мар-2014 23:29

[Профиль]  [ЛС] 

DX-T-1000

Стаж: 5 лет 8 месяцев

Сообщений: 26

фильм ништяк

Создавать темы 15-Мар-2014 10:35

[Профиль]  [ЛС] 

leader

Стаж: 3 года 10 месяцев

Сообщений: 1

А когда будеть раздачаааааа????

Создавать темы 27-Мар-2014 10:20

[Профиль]  [ЛС] 
Показать сообщения:    
Ответить на тему

Текущее время: 22-Сен 21:59

Часовой пояс: UTC + 5



Вы не можете начинать темы
Вы не можете отвечать на сообщения
Вы не можете редактировать свои сообщения
Вы не можете удалять свои сообщения
Вы не можете голосовать в опросах
Вы не можете прикреплять файлы к сообщениям
Вы не можете скачивать файлы