Мы — бескрылые / Ore-tachi ni Tsubasa wa Nai (Усиро Синдзи) [TV] [12 из 12] [без хардсаба] [JAP+SUB] [2011 г., комедия, романтика, этти, BDRip] [720p]

Ответить на тему
 

Vergil ®

Стаж: 6 лет

Сообщений: 689

- Год выпуска: 2011
Страна: Япония
Жанр: комедия, романтика, этти
Продолжительность: 12 эп. по 24 мин.
Выпуск: c 04.04.2011 по 20.06.2011-Перевод:
  • русские субтитры от Dreamers Team (полные/вспомогательные)
    редактор/оформление: Amarillis, переводчик/перевод песен: Empty, редактор: Ryuji
-Режиссер: Усиро Синдзи
Студия: Nomad-Описание:
Жить в Японии можно по-разному. Например, 17-летний Такаси Ханэда – выпускник старшей школы, тихий и застенчивый, которого то и дело уносит в «страну фантазию». Его кредо – бежать от житейских проблем, ведь от малейшего стресса парня скручивает приступ астмы. А вот Сюсукэ Титосэ, другой герой сериала – типичный свободный художник, веселый и общительный, может и статью написать, и девушку покорить, и подработать официантом в любимом ресторане «Александр». Ну а Хаято Нарита – одинокий «рыцарь ночи», которого знают и уважают на улицах за то, что суров, справедлив и берется за любую работу: от стройки и ремонта до «решения вопросов». Такому и с сестренкой главаря местной банды прогуляться не зазорно – люди все поймут правильно.
Три молодых человека, три ровесника, три судьбы. С одной стороны, каждый вроде бы живет в своем мире, но на деле мир для всех один; сферы, в которых вращаются персонажи, неизбежно пересекаются, а их поступки влияют друг на друга. Общие места, общие знакомые, общее небо постепенно соединяют ребят так прочно, что кажется, будто их личности - грани какой-то головоломки. Не зря каждый из троих героев носит схожее прозвище – Ястреб, Орел и Сокол. Есть ли у них крылья, суждено ли им летать и как высоко – ответ лежит по ту сторону экрана!
© Hollow, World Art-Информационные ссылки: AniDB || World Art || MAL-Качество: BDRip
Энкод: Yousei-raws | [email protected] rizon. net
Формат: mkv
Видео: x264 (Hi10p), 1280x720, ~2200 Kbps, 23.976 fps
Аудио JAP: Vorbis, 48000Hz, ~256 Kbps, 2ch

Список эпизодов

01. A Hypothetical Fairy Tale
02. My Favourite Animal Is the Pegasus
03. Kobato-san Is Cute
04. Dora... I Think I Might Be Pregnant at the Moment...
05. Oh, Thee Exalted Virtues of Count Bork!
06. Yikes! No Way, They`ll Hear Us!
07. The Admirable King Has Returned!
08. Is the Big-Breasted Gal with Cream Still Not Here Yet!
09. My Heart Is Pounding!
10. Please Be My Fan Forever
11. Are You Familiar with Imouto Moe?
12. We Don`t Have...

Скриншоты

Media Info

General
Unique ID : 212097764627762130036326403929283477758 (0x9F908B2998002A1EBA9CDE01FB8BC0FE)
Complete name : D:\Download\downlod\Ore-tachi ni Tsubasa wa Nai [BD] [720p]\[Yousei-raws] Ore-tachi ni Tsubasa wa Nai 01 [BDrip 1280x720 x264 Vorbis].mkv
Format : Matroska
Format version : Version 2
File size : 476 MiB
Duration : 24mn 26s
Overall bit rate mode : Variable
Overall bit rate : 2 723 Kbps
Encoded date : UTC 2011-10-07 13:15:59
Writing application : mkvmerge v2.9.7 ('Tenderness') built on Jul 1 2009 18:43:35
Writing library : libebml v0.7.7 + libmatroska v0.8.1
Video
ID : 1
Format : AVC
Format/Info : Advanced Video Codec
Format profile : High [email protected]
Format settings, CABAC : Yes
Format settings, ReFrames : 9 frames
Codec ID : V_MPEG4/ISO/AVC
Duration : 24mn 26s
Bit rate : 2 413 Kbps
Width : 1 280 pixels
Height : 720 pixels
Display aspect ratio : 16:9
Frame rate mode : Constant
Frame rate : 23.976 fps
Color space : YUV
Chroma subsampling : 4:2:0
Bit depth : 10 bits
Scan type : Progressive
Bits/(Pixel*Frame) : 0.109
Stream size : 422 MiB (89%)
Writing library : x264 core 118 r2085+614 d1cc25d
Encoding settings : cabac=1 / ref=9 / deblock=1:-2:-2 / analyse=0x3:0x133 / me=umh / subme=9 / psy=1 / fade_compensate=0.00 / psy_rd=0.90:0.00 / mixed_ref=1 / me_range=24 / chroma_me=1 / trellis=2 / 8x8dct=1 / cqm=0 / deadzone=21,11 / fast_pskip=1 / chroma_qp_offset=-2 / threads=6 / sliced_threads=0 / nr=0 / decimate=0 / interlaced=0 / bluray_compat=0 / constrained_intra=0 / fgo=0 / bframes=8 / b_pyramid=2 / b_adapt=2 / b_bias=0 / direct=1 / weightb=1 / open_gop=0 / weightp=2 / keyint=250 / keyint_min=23 / scenecut=40 / intra_refresh=0 / rc=crf / mbtree=0 / crf=15.5 / qcomp=0.70 / qpmin=9 / qpmax=38 / qpstep=4 / ip_ratio=1.40 / pb_ratio=1.30 / aq=1:0.90
Default : Yes
Forced : No
Audio
ID : 2
Format : Vorbis
Format settings, Floor : 1
Codec ID : A_VORBIS
Duration : 24mn 26s
Bit rate mode : Variable
Bit rate : 256 Kbps
Channel(s) : 2 channels
Sampling rate : 48.0 KHz
Compression mode : Lossy
Stream size : 44.7 MiB (9%)
Writing library : libVorbis (Schaufenugget) (20101101 (Schaufenugget))
Language : Japanese
Default : Yes
Forced : No

Создавать темы 13-Мар-2014 15:43

[Профиль]  [ЛС] 

Lyoman

Стаж: 5 лет 7 месяцев

Сообщений: 77

Симпатии: 3

так есть русская озвучка или тока субтитры? Что то понять не могу)

Создавать темы 13-Мар-2014 16:14

[Профиль]  [ЛС] 

Vergil ®

Стаж: 6 лет

Сообщений: 689

русской озвучки нет

Создавать темы 13-Мар-2014 16:17

[Профиль]  [ЛС] 

SNIL

Стаж: 5 лет 7 месяцев

Сообщений: 2624

Симпатии: 341

Хочу уточнить: на 2м скрине чо за англ слова?

Создавать темы 13-Мар-2014 16:52

[Профиль]  [ЛС] 

Vergil ®

Стаж: 6 лет

Сообщений: 689

это не хардсаб, а встроенные надписи по задумке автора/режиссёра. Видишь она ему пальцем намекает

Пример из другого аниме

Комментарий от SNIL


всё ясно (я так и подумал)

Создавать темы 13-Мар-2014 17:00

[Профиль]  [ЛС] 

MeiDoCorpse

Стаж: 4 года 3 месяца

Сообщений: 222

Симпатии: 14

Найс, я его дождался!
Vergil, Спасибо!

Создавать темы 13-Мар-2014 18:43

[Профиль]  [ЛС] 
Показать сообщения:    
Ответить на тему

Текущее время: 18-Авг 14:01

Часовой пояс: UTC + 5



Вы не можете начинать темы
Вы не можете отвечать на сообщения
Вы не можете редактировать свои сообщения
Вы не можете удалять свои сообщения
Вы не можете голосовать в опросах
Вы не можете прикреплять файлы к сообщениям
Вы не можете скачивать файлы