Скажи: ''Я люблю тебя''. / Sukitte Ii na yo. / Suki-tte Ii na yo. / Say ''I Love You'' (Сато Такуя) [TV] [13 из 13] [без хардсаба] [RUS(ext), JAP+SUB] [2012 г., романтика, школа, сёдзё, BDRip] [720p]

Ответить на тему
 

MeiDoCorpse ®

Стаж: 4 года 7 месяцев

Сообщений: 222

Симпатии: 14

- Год выпуска: 2013
Страна: Япония
Жанр: романтика, школа, сёдзё
Продолжительность: ТВ | 13 эп. по 25 мин.-Режиссёр: Сато Такуя
Автор оригинала: Хадзуки Канаэ
Студия: Zexcs-Описание:
Из-за обычной детской жестокости Мэй Татибана решила, что дружбы не существует, и любое сближение обернется лишь болью и предательством. Так неглупая и симпатичная девушка дожила до 16 лет, заработав в старшей школе вполне объяснимую репутацию одиночки и нелюдимой молчуньи. Конечно же, подобная аура необычности и отстраненности привлекла внимание «школьного принца» Ямато Куросавы. Куросава, парень честный, искренний и малость утомленный навязчивым вниманием знакомых девиц, сам стал искать встречи с Мэй – и добился своего, от души получив «с ноги». Но, как и положено, такое начало только разожгло взаимный интерес!
Слово за слово, ребята начали встречаться, разговаривать, а потом случай и обстоятельства просто притянули их друг к другу. Мэй вошла в компанию Ямато и постепенно поняла, что вокруг нее вовсе не звезды и супермены, а такие же школьники – со своими мечтами, проблемами, комплексами, и если кому-то поможешь, то и тебе помогут тоже. В итоге Татибана получила от судьбы шанс услышать заветные слова, которые, пусть не сразу, переменили ее отношение к себе и окружающим. Конечно, местные «львицы» тут же оценили ситуацию и попытались ее исправить, но ведь не зря говорится - чему бывать, того не миновать!
© Hollow, World Art-Cсылки: Официальная страница || AniDB || World Art || MAL-Качество: BDRip
Энкод: Winter
Контейнер: mkv
Тип видео: Без хардсаба
Наличие линковки: Нет
Видео: x264 (Hi10p), 1280x720, ~3000 Kbps, 23.976 fps
Аудио: Japanese, Vorbis, 48000Hz, ~256 Kbps, 2ch, в составе контейнера
Аудио: Russian, AC3, 48000Hz, ~192 Kbps, 2ch, внешними файлами | двухголосая от Zendos & Eladiel
Субтитры: Russian, ASS, внешними файлами | перевод от sys3x & Xellos Slayer
-

Список эпизодов

01. We Kissed
02. Fried Chicken Flavored
03. If You Trust Someone...
04. They Have Scars
05. Just Like This
06. Why
07. I Really Love You
08. New to Love
09. Each and Every
10. Nothing Else
11. Parade
12. I`ll Protect You
13. Say "I Love You"

Скриншоты

Подробные тех. данные

General
Unique ID : 230551632402421104755989410014081821393 (0xAD72A116FE972725B4AC1B059C7BAAD1)
Complete name : E:\Sukitte Ii na yo. [BD] [720p]\[Winter] Sukitte Ii na yo. 01 [BDrip 1280x720 x264 Vorbis].mkv
Format : Matroska
Format version : Version 2
File size : 637 MiB
Duration : 23mn 41s
Overall bit rate mode : Variable
Overall bit rate : 3 755 Kbps
Encoded date : UTC 2012-12-30 10:14:35
Writing application : mkvmerge v2.9.8 ('C'est le bon') built on Aug 13 2009 12:49:06
Writing library : libebml v0.7.7 + libmatroska v0.8.1
Video
ID : 1
Format : AVC
Format/Info : Advanced Video Codec
Format profile : High [email protected]
Format settings, CABAC : Yes
Format settings, ReFrames : 9 frames
Codec ID : V_MPEG4/ISO/AVC
Duration : 23mn 41s
Bit rate : 3 424 Kbps
Width : 1 280 pixels
Height : 720 pixels
Display aspect ratio : 16:9
Frame rate mode : Constant
Frame rate : 23.976 fps
Color space : YUV
Chroma subsampling : 4:2:0
Bit depth : 10 bits
Scan type : Progressive
Bits/(Pixel*Frame) : 0.155
Stream size : 580 MiB (91%)
Writing library : x264 core 129 r2230 1cffe9f
Encoding settings : cabac=1 / ref=9 / deblock=1:-2:-2 / analyse=0x3:0x133 / me=umh / subme=9 / psy=1 / psy_rd=0.90:0.00 / mixed_ref=1 / me_range=24 / chroma_me=1 / trellis=2 / 8x8dct=1 / cqm=0 / deadzone=21,11 / fast_pskip=1 / chroma_qp_offset=-2 / threads=6 / lookahead_threads=1 / sliced_threads=0 / nr=0 / decimate=0 / interlaced=0 / bluray_compat=0 / constrained_intra=0 / bframes=8 / b_pyramid=2 / b_adapt=2 / b_bias=0 / direct=1 / weightb=1 / open_gop=0 / weightp=2 / keyint=250 / keyint_min=23 / scenecut=40 / intra_refresh=0 / rc=crf / mbtree=0 / crf=15.7 / qcomp=0.70 / qpmin=9 / qpmax=40 / qpstep=4 / ip_ratio=1.40 / pb_ratio=1.30 / aq=1:0.90
Default : No
Forced : No
Audio
ID : 2
Format : Vorbis
Format settings, Floor : 1
Codec ID : A_VORBIS
Duration : 23mn 41s
Bit rate mode : Variable
Bit rate : 256 Kbps
Channel count : 2 channels
Sampling rate : 48.0 KHz
Compression mode : Lossy
Stream size : 43.4 MiB (7%)
Writing library : libVorbis (Schaufenugget) (20101101 (Schaufenugget))
Language : Japanese
Default : Yes
Forced : No

Создавать темы 13-Мар-2014 19:17

[Профиль]  [ЛС] 

SNIL

Стаж: 5 лет 11 месяцев

Сообщений: 2624

Симпатии: 341

794653Скажи: ''Я люблю тебя''. / Sukitte Ii na yo. / Suki-tte Ii na yo. / Say ''I Love You'' (Сато Такуя) [TV] [13 из 13]
почему Sukitte Ii na yo. 2а раза написано?
и для справки: в папке BD Menu?

Создавать темы 13-Мар-2014 19:22

[Профиль]  [ЛС] 

MeiDoCorpse ®

Стаж: 4 года 7 месяцев

Сообщений: 222

Симпатии: 14

794654почему Sukitte Ii na yo. 2а раза написано?
По разному написано
794654и для справки: в папке BD Menu?
В папке BD Menu, находится BD Menu © КЭП
Только скринами

Создавать темы 13-Мар-2014 19:26

[Профиль]  [ЛС] 

SNIL

Стаж: 5 лет 11 месяцев

Сообщений: 2624

Симпатии: 341

794657
В папке BD Menu, находится BD Menu © КЭП
Только скринами
а вдруг не то?)

Создавать темы 13-Мар-2014 19:32

[Профиль]  [ЛС] 

Азиз87

Стаж: 5 лет 1 месяц

Сообщений: 752

Симпатии: 143

а вдруг не то?)
ему можно доверять как и Аглену на рутреке

Скриншоты

Создавать темы 13-Мар-2014 20:50

[Профиль]  [ЛС] 

brutar

Стаж: 5 лет 10 месяцев

Сообщений: 40

Мне так понравилась эта аниме. Мангу что ли прочитать... 2-й сезон похоже будет не скоро.

Создавать темы 28-Май-2014 02:40

[Профиль]  [ЛС] 

absra

Стаж: 5 лет 9 месяцев

Сообщений: 10

Спасибо очень классное аниме. Советую всем

Создавать темы 31-Май-2014 20:48

[Профиль]  [ЛС] 

NeroMashin

Стаж: 5 лет 11 месяцев

Сообщений: 6

А причём тут Звуки небес (ソラノヲト;Sora no woto)?

Комментарий от Азиз87


Издержки в оформлении автора релиза.

Создавать темы 17-Июн-2014 18:14

[Профиль]  [ЛС] 
Показать сообщения:    
Ответить на тему

Текущее время: 17-Дек 03:11

Часовой пояс: UTC + 5



Вы не можете начинать темы
Вы не можете отвечать на сообщения
Вы не можете редактировать свои сообщения
Вы не можете удалять свои сообщения
Вы не можете голосовать в опросах
Вы не можете прикреплять файлы к сообщениям
Вы не можете скачивать файлы