Багровая зима / Crimson Winter (Брайан Ферритер) [2013 г., ужасы, триллер, HDRip]

Ответить на тему
 

Жанибек ®

Стаж: 4 года

Сообщений: 35

Симпатии: 3

Багровая зима / Crimson Winter--
Год выпуска: 2013
Страна: США

Жанр: ужасы, триллер
Продолжительность: 01:46:19
Перевод: Любительский (одноголосый) [Хихидок]--Режиссер: Брайан Ферритер
В ролях: Брайан Ферритер, Ник Милодрагович, Кайли Майкл Портсмут, Райн Пфайффер, Брэндон Дэй, Поли Роджа
Оператор : Билл Отто
Продюсер : Брайан Ферритье, Ким Клаасен
Сценаристы :Брайан Ферритье, Натан Миллз, Райан Пфайффер--Описание: В прошлом клан вампиров был свергнут. Оставшиеся нашли свой приют в заснеженных горах. Наше время. Группа студентов проводят исследования в тех самых горах. Когда они заходят еще дальше, то вынуждены бороться за свои собственные жизни...--Качество: HDRip
Формат: AVI
Видео кодек: XviD
Аудио кодек: AC3
Видео: Xvid, 720x304, 23.976fps, 1765kbps
Аудио: AC3, 48000Hz, 192kbps, (2 ch)
--

Скриншоты





Media Info

General
Complete name : D:\ФИЛЬМЫ\Скаченные\Crimson.Winter.2013.L1.HDRip.avi
Format : AVI
Format/Info : Audio Video Interleave
File size : 1.46 GiB
Duration : 1h 46mn
Overall bit rate : 1 965 Kbps
Writing application : VirtualDubMod 1.5.10.3 | www.virtualdub-fr.org || (build 2550/release)
Writing library : VirtualDubMod build 2550/release
Video
ID : 0
Format : MPEG-4 Visual
Format profile : Advanced [email protected]
Format settings, BVOP : 1
Format settings, QPel : No
Format settings, GMC : No warppoints
Format settings, Matrix : Custom
Codec ID : XVID
Codec ID/Hint : XviD
Duration : 1h 46mn
Bit rate : 1 766 Kbps
Width : 720 pixels
Height : 304 pixels
Display aspect ratio : 2.35:1
Frame rate : 23.976 fps
Color space : YUV
Chroma subsampling : 4:2:0
Bit depth : 8 bits
Scan type : Progressive
Compression mode : Lossy
Bits/(Pixel*Frame) : 0.336
Stream size : 1.31 GiB (90%)
Writing library : XviD 73
Audio
ID : 1
Format : AC-3
Format/Info : Audio Coding 3
Mode extension : CM (complete main)
Format settings, Endianness : Big
Codec ID : 2000
Duration : 1h 45mn
Bit rate mode : Constant
Bit rate : 192 Kbps
Channel(s) : 2 channels
Channel positions : Front: L R
Sampling rate : 48.0 KHz
Bit depth : 16 bits
Compression mode : Lossy
Stream size : 144 MiB (10%)
Alignment : Split accross interleaves
Interleave, duration : 42 ms (1.01 video frame)
Interleave, preload duration : 500 ms


Последний раз редактировалось: Жанибек (2014-03-14 11:21), всего редактировалось 8 раз(а)

Создавать темы 14-Мар-2014 09:48

[Профиль]  [ЛС] 

Азиз87

Стаж: 5 лет 1 месяц

Сообщений: 752

Симпатии: 143

  • Рейтинги ?
  • Медиа инфо файла?
  • Качество: HDRip [Рип с BDRip 720p]- а может уже HWP?

Создавать темы 14-Мар-2014 10:15

[Профиль]  [ЛС] 

Tricks

Стаж: 5 лет

Сообщений: 602

Симпатии: 21

Как фильм стоит ли качать?

Создавать темы 14-Мар-2014 12:07

[Профиль]  [ЛС] 

last_titan

Стаж: 5 лет 8 месяцев

Сообщений: 11

я смотрел фильм супер всем советую

Создавать темы 14-Мар-2014 14:04

[Профиль]  [ЛС] 

last_titan

Стаж: 5 лет 8 месяцев

Сообщений: 11

я на раздаче

Создавать темы 14-Мар-2014 14:37

[Профиль]  [ЛС] 

Tricks

Стаж: 5 лет

Сообщений: 602

Симпатии: 21

last_titan, ок посмотрим

Создавать темы 14-Мар-2014 17:01

[Профиль]  [ЛС] 

sverchic

Стаж: 5 лет 7 месяцев

Сообщений: 43

Rating IMDb : 3,2 from 113 users

Создавать темы 15-Мар-2014 00:20

[Профиль]  [ЛС] 

19ян73

Стаж: 6 лет

Сообщений: 133

Симпатии: 2

Не уходите с раздачи!2 сида при скорости 10к!!!

Создавать темы 15-Мар-2014 14:25

[Профиль]  [ЛС] 

flint

Стаж: 5 лет 3 месяца

Сообщений: 18

Не тратьте свое время на этот фильм плюс под конец картинка со звуком расходится секунд на 20!

Создавать темы 18-Мар-2014 21:42

[Профиль]  [ЛС] 
Показать сообщения:    
Ответить на тему

Текущее время: 13-Дек 12:04

Часовой пояс: UTC + 5



Вы не можете начинать темы
Вы не можете отвечать на сообщения
Вы не можете редактировать свои сообщения
Вы не можете удалять свои сообщения
Вы не можете голосовать в опросах
Вы не можете прикреплять файлы к сообщениям
Вы не можете скачивать файлы